<?xml version="1.0" standalone="no"?>
<!DOCTYPE svg PUBLIC "-//W3C//DTD SVG 1.1//EN" "http://www.w3.org/Graphics/SVG/1.1/DTD/svg11.dtd" >
<svg xmlns="http://www.w3.org/2000/svg" xmlns:xlink="http://www.w3.org/1999/xlink" version="1.1">
<metadata>
Created by FontForge 20160407 at Tue Jul 26 10:09:26 2016
 By Jimmy Warting
Copyright (c) 2011 by Ryoichi Tsunekawa. All rights reserved.
</metadata>
<defs>
<font id="RamaGothicE-Regular" horiz-adv-x="359" >
  <font-face 
    font-family="Rama Gothic E Regular"
    font-weight="400"
    font-stretch="normal"
    units-per-em="1000"
    panose-1="4 5 5 3 2 11 2 2 2 2"
    ascent="800"
    descent="-200"
    x-height="518"
    cap-height="700"
    bbox="-32 -237 1000 885"
    underline-thickness="40"
    underline-position="-90"
    stemh="66"
    stemv="76"
    unicode-range="U+0020-FB02"
  />
<missing-glyph horiz-adv-x="500" 
d="M449 0h-398v700h398v-700zM81 26h338v648h-338v-648z" />
    <glyph glyph-name="fi" unicode="fi" horiz-adv-x="404" 
d="M138 582v-64h101v-66h-101v-452h-75v452h-45v66h45v75c0 82 35 118 113 118c23 0 46 -4 63 -11v-62c-14 6 -28 9 -49 9c-36 0 -52 -16 -52 -65zM356 0h-76v518h76v-518zM356 606h-76v94h76v-94z" />
    <glyph glyph-name="fl" unicode="fl" horiz-adv-x="404" 
d="M138 582v-64h101v-66h-101v-452h-75v452h-45v66h45v75c0 82 35 118 113 118c23 0 46 -4 63 -11v-62c-14 6 -28 9 -49 9c-36 0 -52 -16 -52 -65zM356 0h-76v700h76v-700z" />
    <glyph glyph-name=".notdef" horiz-adv-x="500" 
d="M449 0h-398v700h398v-700zM81 26h338v648h-338v-648z" />
    <glyph glyph-name="space" unicode=" " horiz-adv-x="183" 
 />
    <glyph glyph-name="exclam" unicode="!" horiz-adv-x="189" 
d="M54 0v107h81v-107h-81zM137 446l-21 -275h-43l-21 275v254h85v-254z" />
    <glyph glyph-name="quotedbl" unicode="&#x22;" horiz-adv-x="330" 
d="M279 585l-13 -231h-49l-14 231v115h76v-115zM128 585l-13 -231h-49l-14 231v115h76v-115z" />
    <glyph glyph-name="numbersign" unicode="#" 
d="M35 453l6 61h53l20 186h57l-19 -186h89l20 186h57l-19 -186h54l-6 -61h-55l-21 -206h54l-6 -61h-54l-20 -186h-57l19 186h-90l-19 -186h-57l19 186h-54l6 61h54l21 206h-52zM145 453l-21 -206h89l22 206h-90z" />
    <glyph glyph-name="dollar" unicode="$" 
d="M160 -48v49c-83 6 -129 56 -129 162v90h76v-100c0 -54 21 -81 69 -81c49 0 69 27 69 81v13c0 173 -214 148 -214 376v2c0 98 46 147 129 154v50h37v-50c83 -6 130 -56 130 -161v-86h-77v95c0 55 -20 82 -68 82c-50 0 -69 -27 -69 -82v-4c0 -173 214 -148 214 -376v-11
c0 -98 -47 -148 -130 -154v-49h-37z" />
    <glyph glyph-name="percent" unicode="%" horiz-adv-x="620" 
d="M139 0l285 700h57l-285 -700h-57zM590 351v-254c0 -77 -40 -108 -102 -108s-103 31 -103 108v254c0 77 41 108 103 108s102 -31 102 -108zM529 93v262c0 33 -12 50 -41 50c-30 0 -42 -17 -42 -50v-262c0 -33 12 -51 42 -51c29 0 41 18 41 51zM235 603v-254
c0 -77 -40 -108 -102 -108s-103 31 -103 108v254c0 77 41 108 103 108s102 -31 102 -108zM174 345v262c0 33 -12 50 -41 50c-30 0 -42 -17 -42 -50v-262c0 -33 12 -51 42 -51c29 0 41 18 41 51z" />
    <glyph glyph-name="ampersand" unicode="&#x26;" horiz-adv-x="468" 
d="M227 429c81 -197 105 -261 115 -302c18 35 30 87 30 161v125h66v-117c0 -103 -23 -175 -56 -223c10 -10 23 -14 40 -14c16 0 26 2 35 6v-65c-14 -5 -33 -8 -52 -8c-33 0 -60 7 -82 24c-32 -19 -67 -27 -99 -27c-60 0 -106 9 -151 107l-27 59c-19 41 -27 77 -27 109
c0 60 30 102 80 138l34 25c-30 76 -38 123 -38 160c0 65 38 124 117 124c81 0 112 -50 112 -116c0 -67 -30 -114 -97 -166zM232 55c17 0 36 3 55 13l-131 305l-21 -16c-24 -19 -37 -43 -37 -75c0 -21 5 -50 20 -81l35 -75c29 -62 51 -71 79 -71zM176 592
c0 -44 17 -79 26 -112c48 41 62 76 62 115c0 43 -17 59 -44 59c-29 0 -44 -21 -44 -62z" />
    <glyph glyph-name="quotesingle" unicode="'" horiz-adv-x="180" 
d="M128 585l-13 -231h-49l-14 231v115h76v-115z" />
    <glyph glyph-name="parenleft" unicode="(" horiz-adv-x="223" 
d="M37 534c0 125 65 166 151 166h35v-60h-25c-61 0 -83 -28 -83 -98v-475c0 -70 22 -98 83 -98h25v-60h-35c-86 0 -151 41 -151 166v459z" />
    <glyph glyph-name="parenright" unicode=")" horiz-adv-x="223" 
d="M186 534v-459c0 -125 -65 -166 -151 -166h-35v60h25c61 0 83 28 83 98v475c0 70 -22 98 -83 98h-25v60h35c86 0 151 -41 151 -166z" />
    <glyph glyph-name="asterisk" unicode="*" horiz-adv-x="384" 
d="M1 418l149 78l-149 77l29 50l140 -90l-7 167h58l-8 -167l141 90l29 -50l-149 -77l149 -78l-29 -49l-141 89l8 -167h-58l7 167l-140 -89z" />
    <glyph glyph-name="plus" unicode="+" 
d="M212 188h-66v129h-109v65h109v128h66v-128h110v-65h-110v-129z" />
    <glyph glyph-name="comma" unicode="," horiz-adv-x="180" 
d="M52 0v129h75v-129l-77 -102l-8 6l48 96h-38z" />
    <glyph glyph-name="hyphen" unicode="-" horiz-adv-x="278" 
d="M245 292v-68h-212v68h212z" />
    <glyph glyph-name="period" unicode="." horiz-adv-x="180" 
d="M52 0v129h75v-129h-75z" />
    <glyph glyph-name="slash" unicode="/" horiz-adv-x="324" 
d="M9 0l230 700h76l-231 -700h-75z" />
    <glyph glyph-name="zero" unicode="0" 
d="M322 143c0 -107 -52 -154 -142 -154c-91 0 -143 47 -143 154v414c0 107 52 154 143 154c90 0 142 -47 142 -154v-414zM246 566c0 52 -19 79 -66 79c-48 0 -67 -27 -67 -79v-432c0 -52 19 -79 67 -79c47 0 66 27 66 79v432z" />
    <glyph glyph-name="one" unicode="1" horiz-adv-x="218" 
d="M24 594v64h45c35 0 47 18 49 42h43v-700h-76v594h-61z" />
    <glyph glyph-name="two" unicode="2" horiz-adv-x="345" 
d="M108 445h-71v108c0 108 51 158 140 158c90 0 140 -50 140 -158v-13c0 -229 -209 -249 -209 -450v-14h206v-76h-282v83c0 245 210 261 210 454v26c0 51 -19 82 -67 82s-67 -31 -67 -82v-118z" />
    <glyph glyph-name="three" unicode="3" horiz-adv-x="344" 
d="M32 250h71v-113c0 -51 19 -82 67 -82c47 0 67 31 67 82v113c0 54 -17 83 -67 83h-51v65h51c50 0 67 30 67 83v82c0 51 -20 82 -67 82c-48 0 -67 -31 -67 -82v-82h-71v74c0 107 51 156 140 156c90 0 140 -48 140 -156v-56c0 -81 -25 -119 -71 -134c46 -15 71 -52 71 -133
v-86c0 -107 -50 -157 -140 -157c-89 0 -140 50 -140 157v104z" />
    <glyph glyph-name="four" unicode="4" horiz-adv-x="353" 
d="M332 220v-74h-45v-146h-76v146h-188v63l179 491h85v-480h45zM164 418l-69 -198h116v182c0 83 4 155 10 208c-13 -53 -31 -117 -57 -192z" />
    <glyph glyph-name="five" unicode="5" horiz-adv-x="361" 
d="M44 245h70v-108c0 -51 19 -82 67 -82s67 31 67 82v243c0 62 -20 79 -59 79c-43 0 -75 -40 -75 -88v-43h-70v372h275v-76h-205v-168c17 39 53 68 103 68c61 0 107 -32 107 -140v-237c0 -108 -51 -158 -140 -158c-90 0 -140 50 -140 158v98z" />
    <glyph glyph-name="six" unicode="6" horiz-adv-x="354" 
d="M322 333v-190c0 -107 -52 -154 -142 -154c-91 0 -143 47 -143 154v410c0 108 50 158 140 158s140 -50 140 -158v-21h-71v31c0 51 -19 82 -66 82c-48 0 -67 -31 -67 -82v-156c17 37 53 66 102 66c61 0 107 -32 107 -140zM187 407c-42 0 -74 -40 -74 -87v-186
c0 -52 19 -79 67 -79c47 0 66 27 66 79v195c0 61 -20 78 -59 78z" />
    <glyph glyph-name="seven" unicode="7" horiz-adv-x="326" 
d="M28 624v76h281v-62l-197 -638h-84l207 624h-207z" />
    <glyph glyph-name="eight" unicode="8" horiz-adv-x="349" 
d="M317 499c0 -66 -16 -113 -67 -134c51 -21 67 -68 67 -133v-92c0 -107 -51 -151 -142 -151s-143 44 -143 151v92c0 65 16 112 67 133c-51 21 -67 68 -67 134v61c0 107 52 151 143 151s142 -44 142 -151v-61zM175 333c-56 0 -67 -27 -67 -86v-113c0 -52 19 -79 67 -79
s67 27 67 79v113c0 58 -14 86 -67 86zM175 398c53 0 67 28 67 86v82c0 52 -19 79 -67 79s-67 -27 -67 -79v-82c0 -59 12 -86 67 -86z" />
    <glyph glyph-name="nine" unicode="9" horiz-adv-x="354" 
d="M175 55c48 0 67 31 67 82v168c-17 -39 -54 -68 -103 -68c-61 0 -107 32 -107 140v180c0 107 52 154 143 154s142 -47 142 -154v-410c0 -108 -50 -158 -140 -158c-89 0 -140 50 -140 158v31h71v-41c0 -51 19 -82 67 -82zM167 303c43 0 75 40 75 87v176c0 52 -19 79 -67 79
s-67 -27 -67 -79v-185c0 -61 20 -78 59 -78z" />
    <glyph glyph-name="colon" unicode=":" horiz-adv-x="180" 
d="M52 358v129h75v-129h-75zM52 0v129h75v-129h-75z" />
    <glyph glyph-name="semicolon" unicode=";" horiz-adv-x="180" 
d="M52 0v129h75v-129l-77 -102l-8 6l48 96h-38zM52 358v129h75v-129h-75z" />
    <glyph glyph-name="less" unicode="&#x3c;" 
d="M110 351l212 -100v-70l-285 137v63l285 136v-67z" />
    <glyph glyph-name="equal" unicode="=" 
d="M322 299v-66h-285v66h285zM322 466v-65h-285v65h285z" />
    <glyph glyph-name="greater" unicode="&#x3e;" 
d="M37 251l212 100l-212 99v67l285 -136v-63l-285 -137v70z" />
    <glyph glyph-name="question" unicode="?" horiz-adv-x="317" 
d="M89 445h-71v108c0 108 51 158 140 158c90 0 141 -50 141 -158v-21c0 -193 -127 -148 -127 -331v-30h-44v50c0 200 95 145 95 317v25c0 51 -19 82 -67 82c-49 0 -67 -32 -67 -82v-118zM112 0v117h76v-117h-76z" />
    <glyph glyph-name="at" unicode="@" horiz-adv-x="618" 
d="M37 350c0 190 40 361 273 361c231 0 271 -171 271 -361s-40 -361 -271 -361c-233 0 -273 171 -273 361zM87 350c0 -167 26 -314 223 -314c196 0 221 147 221 314s-25 314 -221 314c-197 0 -223 -147 -223 -314zM405 461v-218c0 -57 2 -70 10 -107h-53c-5 9 -8 24 -10 46
c-10 -31 -38 -54 -73 -54c-43 0 -76 26 -76 101v19c0 143 144 118 144 189v28c0 36 -11 53 -41 53c-29 0 -41 -17 -41 -53v-52h-54v48c0 77 33 110 98 110s96 -33 96 -110zM347 234v127c-36 -25 -85 -40 -85 -102v-25c0 -43 17 -52 40 -52c24 0 45 23 45 52z" />
    <glyph glyph-name="A" unicode="A" horiz-adv-x="371" 
d="M274 0l-20 113h-148l-19 -113h-77l121 700h107l121 -700h-85zM149 364l-31 -180h124l-31 180c-11 64 -22 141 -31 237c-9 -96 -20 -173 -31 -237z" />
    <glyph glyph-name="B" unicode="B" horiz-adv-x="394" 
d="M51 700h147c84 0 158 -20 158 -154v-52c0 -81 -27 -116 -71 -132c44 -15 75 -51 75 -131v-75c0 -135 -78 -156 -162 -156h-147v700zM190 329h-54v-255h54c64 0 85 21 85 85v87c0 63 -21 83 -85 83zM136 402h54c64 0 85 20 85 83v58c0 63 -21 83 -85 83h-54v-224z" />
    <glyph glyph-name="C" unicode="C" horiz-adv-x="379" 
d="M122 148c0 -56 21 -84 72 -84c50 0 72 28 72 84v126h80v-115c0 -119 -57 -170 -155 -170c-97 0 -154 51 -154 170v382c0 119 57 170 154 170c98 0 155 -51 155 -170v-94h-80v105c0 56 -22 84 -72 84c-51 0 -72 -28 -72 -84v-404z" />
    <glyph glyph-name="D" unicode="D" horiz-adv-x="402" 
d="M51 0v700h140c83 0 167 -29 167 -163v-374c0 -134 -84 -163 -167 -163h-140zM185 626h-49v-552h49c64 0 88 24 88 87v378c0 63 -24 87 -88 87z" />
    <glyph glyph-name="E" unicode="E" horiz-adv-x="327" 
d="M136 328v-254h166v-74h-251v700h246v-74h-161v-224h143v-74h-143z" />
    <glyph glyph-name="F" unicode="F" horiz-adv-x="301" 
d="M136 315v-315h-85v700h240v-74h-155v-236h138v-75h-138z" />
    <glyph glyph-name="G" unicode="G" horiz-adv-x="385" 
d="M266 465v87c0 56 -22 84 -72 84c-51 0 -72 -28 -72 -84v-404c0 -56 21 -84 72 -84c50 0 72 28 72 84v172h-72v69h154v-389h-44l-8 59c-21 -48 -64 -70 -121 -70c-82 0 -138 46 -138 170v382c0 119 57 170 154 170c98 0 155 -51 155 -170v-76h-80z" />
    <glyph glyph-name="H" unicode="H" horiz-adv-x="417" 
d="M136 328v-328h-85v700h85v-298h145v298h85v-700h-85v328h-145z" />
    <glyph glyph-name="I" unicode="I" horiz-adv-x="184" 
d="M49 0v700h85v-700h-85z" />
    <glyph glyph-name="J" unicode="J" horiz-adv-x="363" 
d="M318 151c0 -113 -57 -162 -154 -162c-98 0 -154 49 -154 162v123h79v-130c0 -54 22 -80 72 -80c51 0 72 26 72 80v556h85v-549z" />
    <glyph glyph-name="K" unicode="K" horiz-adv-x="397" 
d="M136 700v-361c16 41 42 100 80 180l87 181h82l-135 -288l140 -412h-87l-107 322l-60 -120v-202h-85v700h85z" />
    <glyph glyph-name="L" unicode="L" horiz-adv-x="292" 
d="M51 0v700h85v-626h155v-74h-240z" />
    <glyph glyph-name="M" unicode="M" horiz-adv-x="553" 
d="M275 150c6 64 20 134 33 195l74 355h120v-700h-83v393c0 66 3 139 6 205c-10 -66 -23 -137 -36 -204l-84 -394h-70l-84 394c-13 67 -26 138 -36 204c4 -66 6 -139 6 -205v-393h-72v700h119l75 -355c12 -61 26 -131 32 -195z" />
    <glyph glyph-name="N" unicode="N" horiz-adv-x="424" 
d="M302 700h72v-700h-95l-124 425c-12 44 -27 109 -39 159c3 -50 6 -119 6 -161v-423h-73v700h114l106 -366c12 -44 27 -109 40 -158c-3 49 -7 118 -7 160v364z" />
    <glyph glyph-name="O" unicode="O" horiz-adv-x="388" 
d="M37 159v382c0 119 57 170 157 170c99 0 157 -51 157 -170v-382c0 -119 -58 -170 -157 -170c-100 0 -157 51 -157 170zM122 148c0 -56 21 -84 72 -84c50 0 72 28 72 84v404c0 56 -22 84 -72 84c-51 0 -72 -28 -72 -84v-404z" />
    <glyph glyph-name="P" unicode="P" horiz-adv-x="373" 
d="M136 251v-251h-85v700h137c83 0 168 -29 168 -163v-123c0 -135 -85 -163 -168 -163h-52zM182 626h-46v-301h46c64 0 89 23 89 86v128c0 63 -25 87 -89 87z" />
    <glyph glyph-name="Q" unicode="Q" horiz-adv-x="398" 
d="M372 66c6 0 12 1 19 2v-72c-8 -4 -18 -7 -32 -7c-29 0 -54 11 -64 41c-26 -29 -63 -41 -109 -41c-87 0 -149 46 -149 170v382c0 119 57 170 157 170c99 0 157 -51 157 -170v-444c0 -22 5 -31 21 -31zM122 552v-404c0 -56 21 -84 72 -84c50 0 72 28 72 84v404
c0 56 -22 84 -72 84c-51 0 -72 -28 -72 -84z" />
    <glyph glyph-name="R" unicode="R" horiz-adv-x="399" 
d="M172 311h-36v-311h-85v700h147c84 0 162 -19 162 -154v-65c0 -82 -33 -118 -78 -134c46 -16 78 -53 78 -137v-28c0 -126 9 -151 23 -182h-92c-6 21 -16 56 -16 141v59c0 85 -23 111 -103 111zM136 385h54c64 0 85 19 85 83v75c0 63 -21 83 -85 83h-54v-241z" />
    <glyph glyph-name="S" unicode="S" horiz-adv-x="364" 
d="M111 243v-95c0 -56 18 -84 68 -84c51 0 68 28 68 84v14c0 176 -216 150 -216 385v2c0 111 52 162 151 162c97 0 150 -51 150 -170v-65h-79v76c0 56 -18 84 -69 84c-50 0 -68 -28 -68 -84v-6c0 -177 216 -152 216 -386v-9c0 -111 -51 -162 -150 -162
c-98 0 -151 52 -151 170v84h80z" />
    <glyph glyph-name="T" unicode="T" horiz-adv-x="300" 
d="M299 700v-74h-107v-626h-85v626h-107v74h299z" />
    <glyph glyph-name="U" unicode="U" horiz-adv-x="396" 
d="M129 144c0 -54 22 -80 73 -80c50 0 72 26 72 80v556h79v-549c0 -113 -56 -162 -154 -162s-155 49 -155 162v549h85v-556z" />
    <glyph glyph-name="V" unicode="V" horiz-adv-x="368" 
d="M98 700l63 -364c10 -59 19 -130 28 -217c9 87 19 158 29 217l62 364h78l-121 -700h-104l-121 700h86z" />
    <glyph glyph-name="W" unicode="W" horiz-adv-x="575" 
d="M462 0h-102l-50 341c-9 61 -18 135 -23 204c-6 -69 -13 -143 -22 -204l-49 -341h-100l-104 700h85l51 -340c11 -72 20 -148 26 -226c5 78 14 154 25 227l51 339h86l51 -340c11 -72 19 -148 25 -226c6 78 14 154 25 227l51 339h78z" />
    <glyph glyph-name="X" unicode="X" horiz-adv-x="363" 
d="M124 361l-105 339h87l44 -147c17 -55 28 -97 36 -134c8 37 20 79 36 134l43 147h79l-105 -339l112 -361h-87l-50 170c-17 56 -29 97 -36 135c-9 -38 -19 -79 -36 -135l-51 -170h-79z" />
    <glyph glyph-name="Y" unicode="Y" horiz-adv-x="374" 
d="M227 481l58 219h79l-133 -461v-239h-85v232l-134 468h87l59 -219c14 -51 25 -98 35 -152c8 54 21 101 34 152z" />
    <glyph glyph-name="Z" unicode="Z" horiz-adv-x="319" 
d="M25 626v74h274v-57l-186 -569h186v-74h-279v56l186 570h-181z" />
    <glyph glyph-name="bracketleft" unicode="[" horiz-adv-x="237" 
d="M130 667v-698h107v-60h-186v818h186v-60h-107z" />
    <glyph glyph-name="backslash" unicode="\" horiz-adv-x="324" 
d="M85 700l230 -700h-75l-231 700h76z" />
    <glyph glyph-name="bracketright" unicode="]" horiz-adv-x="237" 
d="M107 -31v698h-107v60h186v-818h-186v60h107z" />
    <glyph glyph-name="asciicircum" unicode="^" 
d="M180 615l-85 -223h-70l124 308h61l124 -308h-70z" />
    <glyph glyph-name="underscore" unicode="_" horiz-adv-x="500" 
d="M500 -36v-49h-500v49h500z" />
    <glyph glyph-name="grave" unicode="`" horiz-adv-x="278" 
d="M145 693l66 -123h-51l-93 123h78z" />
    <glyph glyph-name="a" unicode="a" horiz-adv-x="357" 
d="M252 0c-6 16 -9 40 -10 65c-15 -42 -52 -76 -105 -76c-61 0 -108 29 -108 133v9c0 185 210 154 210 247v7c0 51 -18 79 -63 79c-46 0 -64 -28 -64 -79v-37h-71v28c0 107 48 153 138 153c88 0 136 -46 136 -153v-207c0 -90 1 -124 10 -169h-73zM239 142v135
c-54 -36 -134 -50 -134 -140v-9c0 -59 21 -74 60 -74c42 0 74 40 74 88z" />
    <glyph glyph-name="b" unicode="b" horiz-adv-x="370" 
d="M123 376v-234c0 -47 32 -87 74 -87c39 0 60 17 60 78v252c0 61 -21 78 -60 78c-42 0 -74 -40 -74 -87zM47 700h76v-239c17 39 53 68 102 68c62 0 108 -32 108 -140v-260c0 -108 -46 -140 -108 -140c-53 0 -91 34 -106 77l-16 -66h-56v700z" />
    <glyph glyph-name="c" unicode="c" horiz-adv-x="349" 
d="M317 333h-71v51c0 52 -19 79 -66 79c-48 0 -67 -27 -67 -79v-250c0 -52 19 -79 67 -79c47 0 66 27 66 79v61h71v-52c0 -107 -50 -154 -140 -154s-140 47 -140 154v232c0 107 50 154 140 154s140 -47 140 -154v-42z" />
    <glyph glyph-name="d" unicode="d" horiz-adv-x="370" 
d="M247 142v234c0 47 -32 87 -74 87c-39 0 -60 -17 -60 -78v-252c0 -61 21 -78 60 -78c42 0 74 40 74 87zM260 0c-6 16 -9 38 -10 63c-16 -42 -54 -74 -105 -74c-62 0 -108 32 -108 140v260c0 108 46 140 108 140c48 0 85 -29 102 -68v239h76v-531c0 -90 1 -124 10 -169h-73
z" />
    <glyph glyph-name="e" unicode="e" horiz-adv-x="351" 
d="M317 238h-204v-104c0 -52 19 -79 67 -79c47 0 66 27 66 79v42h71v-33c0 -107 -50 -154 -140 -154s-140 47 -140 154v232c0 107 50 154 140 154s140 -47 140 -154v-137zM113 384v-82h133v82c0 52 -19 79 -66 79c-48 0 -67 -27 -67 -79z" />
    <glyph glyph-name="f" unicode="f" horiz-adv-x="233" 
d="M138 582v-64h101v-66h-101v-452h-75v452h-45v66h45v75c0 82 35 118 113 118c23 0 46 -4 63 -11v-62c-14 6 -28 9 -49 9c-36 0 -52 -16 -52 -65z" />
    <glyph glyph-name="g" unicode="g" horiz-adv-x="371" 
d="M35 -43c0 38 15 64 42 78c-20 14 -29 37 -29 65c0 38 19 63 41 76c-37 20 -57 60 -57 127v82c0 107 50 144 140 144c56 0 98 -15 120 -54c5 27 17 43 45 43c12 0 16 0 24 -3v-63c-8 1 -17 2 -24 2c-14 0 -20 -11 -20 -32v-119c0 -108 -52 -145 -142 -145
c-16 0 -30 1 -44 3c-13 -6 -19 -20 -19 -35c0 -17 10 -35 36 -35h88c85 0 125 -34 125 -113c0 -78 -47 -115 -136 -115h-71c-86 0 -119 36 -119 94zM242 392c0 51 -19 79 -67 79s-67 -28 -67 -79v-97c0 -51 19 -79 67 -79s67 28 67 79v97zM166 -88h50c46 0 70 14 70 54
c0 42 -21 52 -60 52h-79c-39 0 -50 -28 -50 -51c0 -36 13 -55 69 -55z" />
    <glyph glyph-name="h" unicode="h" horiz-adv-x="375" 
d="M333 0h-76v385c0 61 -21 78 -60 78c-41 0 -74 -40 -74 -87v-376h-76v700h76v-239c17 39 53 68 102 68c62 0 108 -32 108 -140v-389z" />
    <glyph glyph-name="i" unicode="i" horiz-adv-x="170" 
d="M123 0h-76v518h76v-518zM123 606h-76v94h76v-94z" />
    <glyph glyph-name="j" unicode="j" horiz-adv-x="170" 
d="M123 606h-76v94h76v-94zM29 -135c-18 0 -32 3 -42 7v60c7 -3 16 -5 26 -5c26 0 34 13 34 44v547h76v-550c0 -73 -28 -103 -94 -103z" />
    <glyph glyph-name="k" unicode="k" horiz-adv-x="366" 
d="M123 700v-446c15 34 40 76 70 126l84 138h72l-123 -212l134 -306h-79l-104 239l-54 -88v-151h-76v700h76z" />
    <glyph glyph-name="l" unicode="l" horiz-adv-x="170" 
d="M123 0h-76v700h76v-700z" />
    <glyph glyph-name="m" unicode="m" horiz-adv-x="566" 
d="M123 0h-76v518h71v-67c13 43 49 78 103 78c46 0 81 -19 95 -76c15 43 52 76 105 76c62 0 103 -32 103 -140v-389h-76v385c0 61 -16 78 -55 78c-42 0 -70 -40 -70 -87v-376h-75v385c0 61 -16 78 -55 78c-42 0 -70 -40 -70 -87v-376z" />
    <glyph glyph-name="n" unicode="n" horiz-adv-x="375" 
d="M123 0h-76v518h71v-69c14 44 53 80 107 80c62 0 108 -32 108 -140v-389h-76v385c0 61 -21 78 -60 78c-42 0 -74 -40 -74 -87v-376z" />
    <glyph glyph-name="o" unicode="o" 
d="M322 143c0 -107 -52 -154 -142 -154c-91 0 -143 47 -143 154v232c0 107 52 154 143 154c90 0 142 -47 142 -154v-232zM246 384c0 52 -19 79 -66 79c-48 0 -67 -27 -67 -79v-250c0 -52 19 -79 67 -79c47 0 66 27 66 79v250z" />
    <glyph glyph-name="p" unicode="p" horiz-adv-x="370" 
d="M123 376v-234c0 -47 32 -87 74 -87c39 0 60 17 60 78v252c0 61 -21 78 -60 78c-42 0 -74 -40 -74 -87zM123 -126h-76v644h71v-69c14 44 53 80 107 80c62 0 108 -32 108 -140v-260c0 -108 -46 -140 -108 -140c-49 0 -85 29 -102 67v-182z" />
    <glyph glyph-name="q" unicode="q" horiz-adv-x="370" 
d="M247 142v234c0 47 -32 87 -74 87c-39 0 -60 -17 -60 -78v-252c0 -61 21 -78 60 -78c42 0 74 40 74 87zM323 -126h-76v182c-17 -38 -54 -67 -102 -67c-62 0 -108 32 -108 140v260c0 108 46 140 108 140c53 0 91 -34 106 -78l16 67h56v-644z" />
    <glyph glyph-name="r" unicode="r" horiz-adv-x="341" 
d="M123 0h-76v518h71v-68c14 44 51 79 105 79c61 0 100 -31 100 -138v-132h-71v126c0 61 -18 78 -57 78c-42 0 -72 -40 -72 -87v-376z" />
    <glyph glyph-name="s" unicode="s" horiz-adv-x="338" 
d="M230 126v9c0 111 -198 72 -198 252v2c0 96 50 140 138 140s137 -45 137 -149v-25h-71v32c0 51 -16 80 -64 80s-64 -27 -64 -75v-5c0 -111 198 -76 198 -254v-2c0 -98 -50 -142 -137 -142c-89 0 -137 45 -137 149v33h70v-40c0 -51 17 -80 64 -80c48 0 64 27 64 75z" />
    <glyph glyph-name="t" unicode="t" horiz-adv-x="228" 
d="M160 -6c-68 0 -97 27 -97 103v355h-45v66h45v111h75v-111h79v-66h-79v-347c0 -33 12 -45 39 -45c19 0 29 1 40 4v-64c-16 -4 -38 -6 -57 -6z" />
    <glyph glyph-name="u" unicode="u" horiz-adv-x="375" 
d="M252 142v144v232h76v-349c0 -90 1 -124 10 -169h-73c-6 16 -9 38 -10 63c-16 -42 -54 -74 -105 -74c-62 0 -108 32 -108 140v389h76v-385c0 -61 21 -78 60 -78c42 0 74 40 74 87z" />
    <glyph glyph-name="v" unicode="v" horiz-adv-x="337" 
d="M199 237l61 281h71l-116 -518h-93l-115 518h77l62 -281c12 -55 21 -114 26 -160c6 46 15 105 27 160z" />
    <glyph glyph-name="w" unicode="w" horiz-adv-x="531" 
d="M310 518l51 -282c11 -58 16 -107 20 -150c5 43 11 92 21 150l51 282h72l-101 -518h-89l-51 266c-8 44 -14 101 -19 145c-4 -43 -11 -101 -19 -145l-49 -266h-90l-100 518h78l52 -282c11 -58 15 -107 20 -150c4 43 9 92 20 150l51 282h82z" />
    <glyph glyph-name="x" unicode="x" horiz-adv-x="336" 
d="M213 431l34 87h72l-102 -247l111 -271h-80l-45 111c-21 53 -31 85 -39 113c-9 -28 -20 -61 -41 -113l-44 -111h-72l112 271l-102 247h80l34 -87c24 -61 32 -88 41 -116c10 28 17 55 41 116z" />
    <glyph glyph-name="y" unicode="y" horiz-adv-x="337" 
d="M84 518l62 -281c12 -55 21 -114 26 -160c6 46 15 105 27 160l61 281h71l-125 -558c-13 -60 -37 -95 -114 -95c-19 0 -38 2 -49 5v61c12 -4 24 -5 36 -5c28 0 40 10 47 39c2 11 0 26 -3 41l-116 512h77z" />
    <glyph glyph-name="z" unicode="z" horiz-adv-x="303" 
d="M27 452v66h258v-57l-185 -395h185v-66h-267v57l184 395h-175z" />
    <glyph glyph-name="braceleft" unicode="{" horiz-adv-x="243" 
d="M79 206c0 48 -11 63 -55 63h-24v67h24c44 0 55 14 55 63c0 55 -18 101 -18 158c0 118 65 145 151 145h30v-60h-21c-60 0 -82 -22 -82 -87c0 -46 19 -98 19 -145c0 -66 -21 -95 -54 -108c33 -13 54 -42 54 -107c0 -47 -19 -99 -19 -145c0 -65 22 -87 82 -87h21v-60h-30
c-86 0 -151 27 -151 145c0 57 18 103 18 158z" />
    <glyph glyph-name="bar" unicode="|" horiz-adv-x="278" 
d="M104 -126v826h70v-826h-70z" />
    <glyph glyph-name="braceright" unicode="}" horiz-adv-x="243" 
d="M164 206c0 -55 18 -101 18 -158c0 -118 -65 -145 -151 -145h-30v60h21c60 0 82 22 82 87c0 46 -19 98 -19 145c0 65 21 94 54 107c-33 13 -54 42 -54 108c0 47 19 99 19 145c0 65 -22 87 -82 87h-21v60h30c86 0 151 -27 151 -145c0 -57 -18 -103 -18 -158
c0 -49 11 -63 55 -63h24v-67h-24c-44 0 -55 -15 -55 -63z" />
    <glyph glyph-name="asciitilde" unicode="~" 
d="M322 399v-66c-25 -27 -50 -36 -74 -36c-49 0 -97 39 -144 39c-23 0 -45 -9 -67 -35v65c25 27 49 36 73 36c50 0 97 -39 144 -39c23 0 45 9 68 36z" />
    <glyph glyph-name="uni00A0" unicode="&#xa0;" horiz-adv-x="183" 
 />
    <glyph glyph-name="exclamdown" unicode="&#xa1;" horiz-adv-x="189" 
d="M134 565v-107h-81v107h81zM51 119l21 275h43l21 -275v-254h-85v254z" />
    <glyph glyph-name="cent" unicode="&#xa2;" 
d="M320 424h-71v51c0 51 -19 78 -67 78s-67 -27 -67 -78v-250c0 -51 19 -78 67 -78s67 27 67 78v61h71v-51c0 -100 -45 -147 -122 -154v-66h-37v66c-79 6 -122 54 -122 154v230c0 100 43 147 122 153v67h37v-67c77 -6 122 -54 122 -153v-41z" />
    <glyph glyph-name="sterling" unicode="&#xa3;" 
d="M298 194h-108c-6 -60 -34 -96 -67 -118h205v-76h-297v65c59 20 89 57 94 129h-82v55h81c-14 103 -91 155 -91 294v16c0 102 54 152 148 152c95 0 148 -49 148 -162v-97h-76v106c0 54 -21 81 -68 81c-50 0 -70 -27 -70 -81v-17c0 -126 67 -165 76 -292h107v-55z" />
    <glyph glyph-name="currency" unicode="&#xa4;" 
d="M104 350c0 -44 31 -76 76 -76c44 0 76 32 76 76s-32 76 -76 76c-45 0 -76 -32 -76 -76zM60 350c0 25 8 48 22 67l-58 54l34 34l53 -58c19 14 43 23 69 23c24 0 49 -9 68 -23l53 58l35 -34l-59 -54c14 -19 22 -42 22 -67s-8 -48 -22 -67l59 -55l-35 -33l-53 58
c-19 -14 -44 -23 -68 -23c-26 0 -50 9 -69 23l-53 -58l-34 33l58 55c-14 19 -22 42 -22 67z" />
    <glyph glyph-name="yen" unicode="&#xa5;" 
d="M217 481l55 219h70l-114 -427h97v-41h-107v-75h107v-41h-107v-116h-76v116h-109v41h109v75h-109v41h98l-114 427h78l55 -219c13 -51 25 -98 34 -152c8 54 20 101 33 152z" />
    <glyph glyph-name="brokenbar" unicode="&#xa6;" horiz-adv-x="278" 
d="M104 353v347h70v-347h-70zM104 -126v347h70v-347h-70z" />
    <glyph glyph-name="section" unicode="&#xa7;" horiz-adv-x="361" 
d="M109 124v-56c0 -52 21 -81 69 -81c49 0 70 29 70 71v5c0 124 -217 98 -217 271v1c0 53 22 92 62 112c-35 28 -61 66 -61 124v2c0 89 57 138 148 138c92 0 149 -49 149 -148v-51h-77v56c0 52 -20 81 -69 81s-70 -29 -70 -71v-5c0 -124 217 -98 217 -271v-1
c0 -54 -22 -93 -62 -113c35 -28 62 -65 62 -123v-2c0 -89 -58 -138 -149 -138s-148 49 -148 148v51h76zM266 289c0 67 -70 93 -133 131c-25 -11 -38 -38 -38 -73c0 -68 69 -94 133 -132c25 13 38 42 38 74z" />
    <glyph glyph-name="dieresis" unicode="&#xa8;" horiz-adv-x="278" 
d="M108 583h-71v89h71v-89zM242 583h-72v89h72v-89z" />
    <glyph glyph-name="copyright" unicode="&#xa9;" horiz-adv-x="618" 
d="M37 350c0 190 40 361 273 361c231 0 271 -171 271 -361s-40 -361 -271 -361c-233 0 -273 171 -273 361zM87 350c0 -167 26 -314 223 -314c196 0 221 147 221 314s-25 314 -221 314c-197 0 -223 -147 -223 -314zM271 231c0 -35 11 -52 40 -52s39 17 39 52v51h53v-47
c0 -76 -32 -108 -94 -108c-63 0 -96 32 -96 108v227c0 74 33 107 96 107c62 0 94 -33 94 -107v-48h-53v51c0 35 -10 52 -39 52s-40 -17 -40 -52v-234z" />
    <glyph glyph-name="ordfeminine" unicode="&#xaa;" horiz-adv-x="264" 
d="M187 340c-6 10 -9 26 -10 49c-10 -31 -38 -56 -75 -56c-43 0 -77 24 -77 98v3c0 128 146 111 146 170v1c0 35 -11 52 -41 52c-29 0 -40 -17 -40 -52v-19h-57v15c0 77 34 110 100 110c65 0 99 -33 99 -110v-154c0 -57 2 -70 9 -107h-54zM25 219v62h212v-62h-212zM87 443
v-5c0 -43 17 -51 39 -51c25 0 45 22 45 51v97c-36 -24 -84 -37 -84 -92z" />
    <glyph glyph-name="guillemotleft" unicode="&#xab;" horiz-adv-x="382" 
d="M173 259l122 259h75l-122 -259l122 -259h-75zM12 259l122 259h75l-122 -259l122 -259h-75z" />
    <glyph glyph-name="logicalnot" unicode="&#xac;" 
d="M322 382v-194h-66v129h-219v65h285z" />
    <glyph glyph-name="uni00AD" unicode="&#xad;" horiz-adv-x="278" 
d="M245 292v-68h-212v68h212z" />
    <glyph glyph-name="registered" unicode="&#xae;" horiz-adv-x="618" 
d="M37 350c0 190 40 361 273 361c231 0 271 -171 271 -361s-40 -361 -271 -361c-233 0 -273 171 -273 361zM87 350c0 -167 26 -314 223 -314c196 0 221 147 221 314s-25 314 -221 314c-197 0 -223 -147 -223 -314zM210 562h103c54 0 99 -22 99 -97v-35
c0 -53 -21 -75 -49 -84c28 -9 49 -31 49 -84v-4c0 -100 5 -103 19 -122h-66c-6 15 -11 37 -11 93v35c0 38 -19 57 -49 57h-36v-185h-59v426zM269 509v-136h41c31 0 44 16 44 48v45c0 29 -13 43 -44 43h-41z" />
    <glyph glyph-name="macron" unicode="&#xaf;" horiz-adv-x="278" 
d="M250 594h-222v52h222v-52z" />
    <glyph glyph-name="degree" unicode="&#xb0;" horiz-adv-x="275" 
d="M137 690c65 0 117 -50 117 -115s-52 -116 -117 -116s-116 51 -116 116s51 115 116 115zM137 634c-34 0 -60 -25 -60 -59c0 -35 26 -60 60 -60c35 0 61 25 61 60c0 34 -26 59 -61 59z" />
    <glyph glyph-name="plusminus" unicode="&#xb1;" 
d="M322 232v-65h-285v65h109v106h-109v66h109v128h66v-128h110v-66h-110v-106h110z" />
    <glyph glyph-name="twosuperior" unicode="&#xb2;" horiz-adv-x="265" 
d="M92 695v-52h-56v50c0 77 36 108 98 108c61 0 99 -31 99 -106v-8c0 -147 -133 -163 -137 -288h134v-57h-194v49c0 149 137 170 137 296v8c0 35 -11 52 -41 52c-29 0 -40 -17 -40 -52z" />
    <glyph glyph-name="threesuperior" unicode="&#xb3;" horiz-adv-x="265" 
d="M97 548v53h34c31 0 41 13 41 47v47c0 35 -12 53 -41 53c-30 0 -42 -18 -42 -53v-35h-56v34c0 77 38 107 99 107c62 0 100 -30 100 -107v-34c0 -54 -21 -77 -50 -86c29 -10 50 -35 50 -88v-48c0 -76 -38 -107 -100 -107c-61 0 -99 31 -99 107v41h56v-41
c0 -36 12 -53 42 -53c29 0 41 17 41 53v60c0 35 -10 50 -41 50h-34z" />
    <glyph glyph-name="acute" unicode="&#xb4;" horiz-adv-x="278" 
d="M67 570l65 123h79l-93 -123h-51z" />
    <glyph glyph-name="uni00B5" unicode="&#xb5;" horiz-adv-x="380" 
d="M47 -126v644h76v-385c0 -61 21 -78 60 -78c42 0 74 40 74 87v376h76v-349c0 -90 1 -124 10 -169h-73c-6 16 -9 40 -10 65c-15 -43 -53 -76 -105 -76c-11 0 -22 1 -32 3v-118h-76z" />
    <glyph glyph-name="paragraph" unicode="&#xb6;" horiz-adv-x="445" 
d="M394 700v-765h-65v699h-74v-699h-66v246h-6c-82 0 -165 28 -165 160v199c0 132 83 160 165 160h211z" />
    <glyph glyph-name="periodcentered" unicode="&#xb7;" horiz-adv-x="180" 
d="M52 285v129h75v-129h-75z" />
    <glyph glyph-name="cedilla" unicode="&#xb8;" horiz-adv-x="278" 
d="M175 -82c0 20 -12 28 -58 27v55h31v-35c55 0 85 -9 85 -49c0 -36 -39 -51 -98 -51c-54 0 -92 12 -88 59h47c-2 -25 10 -34 41 -34c30 0 40 10 40 28z" />
    <glyph glyph-name="onesuperior" unicode="&#xb9;" horiz-adv-x="265" 
d="M80 755h28c30 0 41 13 45 35h32v-448h-60v357h-45v56z" />
    <glyph glyph-name="ordmasculine" unicode="&#xba;" horiz-adv-x="264" 
d="M234 443c0 -77 -35 -110 -102 -110s-102 33 -102 110v158c0 77 35 110 102 110s102 -33 102 -110v-158zM30 219v62h204v-62h-204zM174 605c0 36 -12 52 -42 52s-42 -16 -42 -52v-166c0 -36 12 -53 42 -53s42 17 42 53v166z" />
    <glyph glyph-name="guillemotright" unicode="&#xbb;" horiz-adv-x="382" 
d="M248 518l122 -259l-122 -259h-75l122 259l-122 259h75zM87 518l122 -259l-122 -259h-75l122 259l-122 259h75z" />
    <glyph glyph-name="onequarter" unicode="&#xbc;" horiz-adv-x="540" 
d="M99 0l285 700h57l-285 -700h-57zM40 665h28c30 0 41 13 45 35h32v-448h-60v357h-45v56zM492 448v-296h27v-54h-27v-98h-60v98h-131v46l119 304h72zM393 243l-35 -91h74v79c0 60 6 124 10 157c-9 -32 -29 -93 -49 -145z" />
    <glyph glyph-name="onehalf" unicode="&#xbd;" horiz-adv-x="580" 
d="M99 0l285 700h57l-285 -700h-57zM40 665h28c30 0 41 13 45 35h32v-448h-60v357h-45v56zM407 353v-52h-56v50c0 77 36 108 98 108c61 0 99 -31 99 -106v-8c0 -147 -133 -163 -137 -288h134v-57h-194v49c0 149 137 170 137 296v8c0 35 -11 52 -41 52c-29 0 -40 -17 -40 -52
z" />
    <glyph glyph-name="threequarters" unicode="&#xbe;" horiz-adv-x="580" 
d="M139 0l285 700h57l-285 -700h-57zM532 448v-296h27v-54h-27v-98h-60v98h-131v46l119 304h72zM433 243l-35 -91h74v79c0 60 6 124 10 157c-9 -32 -29 -93 -49 -145zM97 458v53h34c31 0 41 13 41 47v47c0 35 -12 53 -41 53c-30 0 -42 -18 -42 -53v-35h-56v34
c0 77 38 107 99 107c62 0 100 -30 100 -107v-34c0 -54 -21 -77 -50 -86c29 -10 50 -35 50 -88v-48c0 -76 -38 -107 -100 -107c-61 0 -99 31 -99 107v41h56v-41c0 -36 12 -53 42 -53c29 0 41 17 41 53v60c0 35 -10 50 -41 50h-34z" />
    <glyph glyph-name="questiondown" unicode="&#xbf;" horiz-adv-x="317" 
d="M228 120h71v-108c0 -108 -51 -158 -140 -158c-90 0 -141 50 -141 158v21c0 193 127 148 127 331v30h44v-50c0 -200 -95 -145 -95 -317v-25c0 -51 19 -82 67 -82c49 0 67 32 67 82v118zM205 565v-117h-76v117h76z" />
    <glyph glyph-name="Agrave" unicode="&#xc0;" horiz-adv-x="371" 
d="M274 0l-20 113h-148l-19 -113h-77l121 700h107l121 -700h-85zM149 364l-31 -180h124l-31 180c-11 64 -22 141 -31 237c-9 -96 -20 -173 -31 -237zM168 860l66 -123h-51l-93 123h78z" />
    <glyph glyph-name="Aacute" unicode="&#xc1;" horiz-adv-x="371" 
d="M274 0l-20 113h-148l-19 -113h-77l121 700h107l121 -700h-85zM149 364l-31 -180h124l-31 180c-11 64 -22 141 -31 237c-9 -96 -20 -173 -31 -237zM136 737l65 123h79l-93 -123h-51z" />
    <glyph glyph-name="Acircumflex" unicode="&#xc2;" horiz-adv-x="371" 
d="M274 0l-20 113h-148l-19 -113h-77l121 700h107l121 -700h-85zM149 364l-31 -180h124l-31 180c-11 64 -22 141 -31 237c-9 -96 -20 -173 -31 -237zM244 737l-59 70l-59 -70h-53l82 123h60l83 -123h-54z" />
    <glyph glyph-name="Atilde" unicode="&#xc3;" horiz-adv-x="371" 
d="M274 0l-20 113h-148l-19 -113h-77l121 700h107l121 -700h-85zM149 364l-31 -180h124l-31 180c-11 64 -22 141 -31 237c-9 -96 -20 -173 -31 -237zM262 839h41c-2 -62 -29 -88 -70 -88c-43 0 -67 32 -98 32c-20 0 -25 -17 -27 -35h-40c1 62 28 88 69 88
c42 0 67 -33 98 -33c20 0 25 18 27 36z" />
    <glyph glyph-name="Adieresis" unicode="&#xc4;" horiz-adv-x="371" 
d="M274 0l-20 113h-148l-19 -113h-77l121 700h107l121 -700h-85zM149 364l-31 -180h124l-31 180c-11 64 -22 141 -31 237c-9 -96 -20 -173 -31 -237zM154 750h-71v89h71v-89zM288 750h-72v89h72v-89z" />
    <glyph glyph-name="Aring" unicode="&#xc5;" horiz-adv-x="371" 
d="M274 0l-20 113h-148l-19 -113h-77l121 700h107l121 -700h-85zM149 364l-31 -180h124l-31 180c-11 64 -22 141 -31 237c-9 -96 -20 -173 -31 -237zM111 811c0 42 34 74 74 74c41 0 75 -32 75 -74c0 -43 -34 -75 -75 -75c-40 0 -74 32 -74 75zM149 811c0 -22 15 -37 36 -37
c22 0 36 15 36 37c0 21 -14 37 -36 37c-21 0 -36 -16 -36 -37z" />
    <glyph glyph-name="AE" unicode="&#xc6;" horiz-adv-x="493" 
d="M217 0v113h-107l-29 -113h-77l180 700h279v-74h-161v-224h143v-74h-143v-254h166v-74h-251zM168 344l-40 -160h89v195c0 101 3 142 7 217c-16 -78 -36 -172 -56 -252z" />
    <glyph glyph-name="Ccedilla" unicode="&#xc7;" horiz-adv-x="379" 
d="M225 -82c0 20 -12 28 -58 27v45c-83 8 -130 60 -130 169v382c0 119 57 170 154 170c98 0 155 -51 155 -170v-94h-80v105c0 56 -22 84 -72 84c-51 0 -72 -28 -72 -84v-404c0 -56 21 -84 72 -84c50 0 72 28 72 84v126h80v-115c0 -116 -54 -167 -148 -170v-24
c55 0 85 -9 85 -49c0 -36 -39 -51 -98 -51c-54 0 -92 12 -88 59h47c-2 -25 10 -34 41 -34c30 0 40 10 40 28z" />
    <glyph glyph-name="Egrave" unicode="&#xc8;" horiz-adv-x="327" 
d="M136 328v-254h166v-74h-251v700h246v-74h-161v-224h143v-74h-143zM158 860l66 -123h-51l-93 123h78z" />
    <glyph glyph-name="Eacute" unicode="&#xc9;" horiz-adv-x="327" 
d="M136 328v-254h166v-74h-251v700h246v-74h-161v-224h143v-74h-143zM125 737l65 123h79l-93 -123h-51z" />
    <glyph glyph-name="Ecircumflex" unicode="&#xca;" horiz-adv-x="327" 
d="M136 328v-254h166v-74h-251v700h246v-74h-161v-224h143v-74h-143zM233 737l-59 70l-59 -70h-53l82 123h60l83 -123h-54z" />
    <glyph glyph-name="Edieresis" unicode="&#xcb;" horiz-adv-x="327" 
d="M136 328v-254h166v-74h-251v700h246v-74h-161v-224h143v-74h-143zM143 750h-71v89h71v-89zM277 750h-72v89h72v-89z" />
    <glyph glyph-name="Igrave" unicode="&#xcc;" horiz-adv-x="184" 
d="M49 0v700h85v-700h-85zM75 860l66 -123h-51l-93 123h78z" />
    <glyph glyph-name="Iacute" unicode="&#xcd;" horiz-adv-x="184" 
d="M49 0v700h85v-700h-85zM43 737l65 123h79l-93 -123h-51z" />
    <glyph glyph-name="Icircumflex" unicode="&#xce;" horiz-adv-x="184" 
d="M49 0v700h85v-700h-85zM151 737l-59 70l-59 -70h-53l82 123h60l83 -123h-54z" />
    <glyph glyph-name="Idieresis" unicode="&#xcf;" horiz-adv-x="184" 
d="M49 0v700h85v-700h-85zM61 750h-71v89h71v-89zM195 750h-72v89h72v-89z" />
    <glyph glyph-name="Eth" unicode="&#xd0;" horiz-adv-x="403" 
d="M52 0v333h-36v64h36v303h139c84 0 168 -29 168 -163v-374c0 -134 -84 -163 -168 -163h-139zM212 333h-75v-259h48c64 0 89 24 89 87v378c0 63 -25 87 -89 87h-48v-229h75v-64z" />
    <glyph glyph-name="Ntilde" unicode="&#xd1;" horiz-adv-x="424" 
d="M302 700h72v-700h-95l-124 425c-12 44 -27 109 -39 159c3 -50 6 -119 6 -161v-423h-73v700h114l106 -366c12 -44 27 -109 40 -158c-3 49 -7 118 -7 160v364zM288 839h41c-2 -62 -29 -88 -70 -88c-43 0 -67 32 -98 32c-20 0 -25 -17 -27 -35h-40c1 62 28 88 69 88
c42 0 67 -33 98 -33c20 0 25 18 27 36z" />
    <glyph glyph-name="Ograve" unicode="&#xd2;" horiz-adv-x="388" 
d="M37 159v382c0 119 57 170 157 170c99 0 157 -51 157 -170v-382c0 -119 -58 -170 -157 -170c-100 0 -157 51 -157 170zM122 148c0 -56 21 -84 72 -84c50 0 72 28 72 84v404c0 56 -22 84 -72 84c-51 0 -72 -28 -72 -84v-404zM177 860l66 -123h-51l-93 123h78z" />
    <glyph glyph-name="Oacute" unicode="&#xd3;" horiz-adv-x="388" 
d="M37 159v382c0 119 57 170 157 170c99 0 157 -51 157 -170v-382c0 -119 -58 -170 -157 -170c-100 0 -157 51 -157 170zM122 148c0 -56 21 -84 72 -84c50 0 72 28 72 84v404c0 56 -22 84 -72 84c-51 0 -72 -28 -72 -84v-404zM144 737l65 123h79l-93 -123h-51z" />
    <glyph glyph-name="Ocircumflex" unicode="&#xd4;" horiz-adv-x="388" 
d="M37 159v382c0 119 57 170 157 170c99 0 157 -51 157 -170v-382c0 -119 -58 -170 -157 -170c-100 0 -157 51 -157 170zM122 148c0 -56 21 -84 72 -84c50 0 72 28 72 84v404c0 56 -22 84 -72 84c-51 0 -72 -28 -72 -84v-404zM253 737l-59 70l-59 -70h-53l82 123h60l83 -123
h-54z" />
    <glyph glyph-name="Otilde" unicode="&#xd5;" horiz-adv-x="388" 
d="M37 159v382c0 119 57 170 157 170c99 0 157 -51 157 -170v-382c0 -119 -58 -170 -157 -170c-100 0 -157 51 -157 170zM122 148c0 -56 21 -84 72 -84c50 0 72 28 72 84v404c0 56 -22 84 -72 84c-51 0 -72 -28 -72 -84v-404zM271 839h41c-2 -62 -29 -88 -70 -88
c-43 0 -67 32 -98 32c-20 0 -25 -17 -27 -35h-40c1 62 28 88 69 88c42 0 67 -33 98 -33c20 0 25 18 27 36z" />
    <glyph glyph-name="Odieresis" unicode="&#xd6;" horiz-adv-x="388" 
d="M37 159v382c0 119 57 170 157 170c99 0 157 -51 157 -170v-382c0 -119 -58 -170 -157 -170c-100 0 -157 51 -157 170zM122 148c0 -56 21 -84 72 -84c50 0 72 28 72 84v404c0 56 -22 84 -72 84c-51 0 -72 -28 -72 -84v-404zM163 750h-71v89h71v-89zM297 750h-72v89h72v-89
z" />
    <glyph glyph-name="multiply" unicode="&#xd7;" 
d="M276 493l46 -47l-98 -97l98 -97l-46 -46l-97 98l-96 -97l-47 45l98 97l-98 97l47 46l96 -99z" />
    <glyph glyph-name="Oslash" unicode="&#xd8;" horiz-adv-x="388" 
d="M37 159v382c0 119 57 170 157 170c31 0 58 -5 80 -16l14 43l58 -19l-22 -67c17 -27 27 -64 27 -111v-382c0 -119 -58 -170 -157 -170c-31 0 -58 5 -81 15l-13 -42l-57 19l21 66c-18 27 -27 63 -27 112zM122 552v-332l126 395c-12 14 -30 21 -54 21c-51 0 -72 -28 -72 -84
zM194 64c50 0 72 28 72 84v330l-127 -394c12 -14 30 -20 55 -20z" />
    <glyph glyph-name="Ugrave" unicode="&#xd9;" horiz-adv-x="396" 
d="M129 144c0 -54 22 -80 73 -80c50 0 72 26 72 80v556h79v-549c0 -113 -56 -162 -154 -162s-155 49 -155 162v549h85v-556zM181 860l66 -123h-51l-93 123h78z" />
    <glyph glyph-name="Uacute" unicode="&#xda;" horiz-adv-x="396" 
d="M129 144c0 -54 22 -80 73 -80c50 0 72 26 72 80v556h79v-549c0 -113 -56 -162 -154 -162s-155 49 -155 162v549h85v-556zM149 737l65 123h79l-93 -123h-51z" />
    <glyph glyph-name="Ucircumflex" unicode="&#xdb;" horiz-adv-x="396" 
d="M129 144c0 -54 22 -80 73 -80c50 0 72 26 72 80v556h79v-549c0 -113 -56 -162 -154 -162s-155 49 -155 162v549h85v-556zM257 737l-59 70l-59 -70h-53l82 123h60l83 -123h-54z" />
    <glyph glyph-name="Udieresis" unicode="&#xdc;" horiz-adv-x="396" 
d="M129 144c0 -54 22 -80 73 -80c50 0 72 26 72 80v556h79v-549c0 -113 -56 -162 -154 -162s-155 49 -155 162v549h85v-556zM167 750h-71v89h71v-89zM301 750h-72v89h72v-89z" />
    <glyph glyph-name="Yacute" unicode="&#xdd;" horiz-adv-x="374" 
d="M227 481l58 219h79l-133 -461v-239h-85v232l-134 468h87l59 -219c14 -51 25 -98 35 -152c8 54 21 101 34 152zM137 737l65 123h79l-93 -123h-51z" />
    <glyph glyph-name="Thorn" unicode="&#xde;" horiz-adv-x="373" 
d="M51 700h85v-70h52c83 0 168 -29 168 -163v-123c0 -135 -85 -163 -168 -163h-52v-181h-85v700zM136 556v-301h46c64 0 89 23 89 86v128c0 63 -25 87 -89 87h-46z" />
    <glyph glyph-name="germandbls" unicode="&#xdf;" horiz-adv-x="366" 
d="M333 563v-28c0 -73 -26 -114 -81 -128c55 -14 81 -54 81 -126v-168c0 -81 -33 -121 -116 -121c-17 0 -38 3 -52 8v65c15 -5 25 -6 36 -6c44 0 56 18 56 65v177c0 51 -26 76 -77 76h-15v60h15c51 0 77 25 77 76v53c0 52 -19 79 -67 79s-67 -27 -67 -79v-566h-76v563
c0 107 52 148 143 148s143 -41 143 -148z" />
    <glyph glyph-name="agrave" unicode="&#xe0;" horiz-adv-x="357" 
d="M252 0c-6 16 -9 40 -10 65c-15 -42 -52 -76 -105 -76c-61 0 -108 29 -108 133v9c0 185 210 154 210 247v7c0 51 -18 79 -63 79c-46 0 -64 -28 -64 -79v-37h-71v28c0 107 48 153 138 153c88 0 136 -46 136 -153v-207c0 -90 1 -124 10 -169h-73zM239 142v135
c-54 -36 -134 -50 -134 -140v-9c0 -59 21 -74 60 -74c42 0 74 40 74 88zM162 693l66 -123h-51l-93 123h78z" />
    <glyph glyph-name="aacute" unicode="&#xe1;" horiz-adv-x="357" 
d="M252 0c-6 16 -9 40 -10 65c-15 -42 -52 -76 -105 -76c-61 0 -108 29 -108 133v9c0 185 210 154 210 247v7c0 51 -18 79 -63 79c-46 0 -64 -28 -64 -79v-37h-71v28c0 107 48 153 138 153c88 0 136 -46 136 -153v-207c0 -90 1 -124 10 -169h-73zM239 142v135
c-54 -36 -134 -50 -134 -140v-9c0 -59 21 -74 60 -74c42 0 74 40 74 88zM129 570l65 123h79l-93 -123h-51z" />
    <glyph glyph-name="acircumflex" unicode="&#xe2;" horiz-adv-x="357" 
d="M252 0c-6 16 -9 40 -10 65c-15 -42 -52 -76 -105 -76c-61 0 -108 29 -108 133v9c0 185 210 154 210 247v7c0 51 -18 79 -63 79c-46 0 -64 -28 -64 -79v-37h-71v28c0 107 48 153 138 153c88 0 136 -46 136 -153v-207c0 -90 1 -124 10 -169h-73zM239 142v135
c-54 -36 -134 -50 -134 -140v-9c0 -59 21 -74 60 -74c42 0 74 40 74 88zM237 570l-59 70l-59 -70h-53l82 123h60l83 -123h-54z" />
    <glyph glyph-name="atilde" unicode="&#xe3;" horiz-adv-x="357" 
d="M252 0c-6 16 -9 40 -10 65c-15 -42 -52 -76 -105 -76c-61 0 -108 29 -108 133v9c0 185 210 154 210 247v7c0 51 -18 79 -63 79c-46 0 -64 -28 -64 -79v-37h-71v28c0 107 48 153 138 153c88 0 136 -46 136 -153v-207c0 -90 1 -124 10 -169h-73zM239 142v135
c-54 -36 -134 -50 -134 -140v-9c0 -59 21 -74 60 -74c42 0 74 40 74 88zM255 672h41c-2 -62 -29 -88 -70 -88c-43 0 -67 32 -98 32c-20 0 -25 -17 -27 -35h-40c1 62 28 88 69 88c42 0 67 -33 98 -33c20 0 25 18 27 36z" />
    <glyph glyph-name="adieresis" unicode="&#xe4;" horiz-adv-x="357" 
d="M252 0c-6 16 -9 40 -10 65c-15 -42 -52 -76 -105 -76c-61 0 -108 29 -108 133v9c0 185 210 154 210 247v7c0 51 -18 79 -63 79c-46 0 -64 -28 -64 -79v-37h-71v28c0 107 48 153 138 153c88 0 136 -46 136 -153v-207c0 -90 1 -124 10 -169h-73zM239 142v135
c-54 -36 -134 -50 -134 -140v-9c0 -59 21 -74 60 -74c42 0 74 40 74 88zM147 583h-71v89h71v-89zM281 583h-72v89h72v-89z" />
    <glyph glyph-name="aring" unicode="&#xe5;" horiz-adv-x="357" 
d="M252 0c-6 16 -9 40 -10 65c-15 -42 -52 -76 -105 -76c-61 0 -108 29 -108 133v9c0 185 210 154 210 247v7c0 51 -18 79 -63 79c-46 0 -64 -28 -64 -79v-37h-71v28c0 107 48 153 138 153c88 0 136 -46 136 -153v-207c0 -90 1 -124 10 -169h-73zM239 142v135
c-54 -36 -134 -50 -134 -140v-9c0 -59 21 -74 60 -74c42 0 74 40 74 88zM104 644c0 42 34 74 74 74c41 0 75 -32 75 -74c0 -43 -34 -75 -75 -75c-40 0 -74 32 -74 75zM142 644c0 -22 15 -37 36 -37c22 0 36 15 36 37c0 21 -14 37 -36 37c-21 0 -36 -16 -36 -37z" />
    <glyph glyph-name="ae" unicode="&#xe6;" horiz-adv-x="553" 
d="M165 54c42 0 74 40 74 88v135c-54 -36 -134 -50 -134 -140v-9c0 -59 21 -74 60 -74zM519 238h-204v-104c0 -52 19 -79 67 -79s67 27 67 79v42h70v-33c0 -107 -50 -154 -140 -154c-69 0 -115 28 -133 90c-11 -49 -51 -90 -109 -90c-61 0 -108 29 -108 133v9
c0 185 210 154 210 247v6c0 51 -17 79 -64 79c-48 0 -63 -27 -63 -79v-36h-71v27c0 107 44 154 130 154c51 0 86 -17 107 -53c21 36 59 53 109 53c87 0 132 -47 132 -154v-137zM315 385v-83h134v83c0 51 -19 78 -67 78s-67 -27 -67 -78z" />
    <glyph glyph-name="ccedilla" unicode="&#xe7;" horiz-adv-x="349" 
d="M211 -82c0 20 -12 28 -58 27v46c-75 8 -116 55 -116 152v232c0 107 50 154 140 154s140 -47 140 -154v-42h-71v51c0 52 -19 79 -66 79c-48 0 -67 -27 -67 -79v-250c0 -52 19 -79 67 -79c47 0 66 27 66 79v61h71v-52c0 -104 -48 -151 -133 -154v-24c55 0 85 -9 85 -49
c0 -36 -39 -51 -98 -51c-54 0 -92 12 -88 59h47c-2 -25 10 -34 41 -34c30 0 40 10 40 28z" />
    <glyph glyph-name="egrave" unicode="&#xe8;" horiz-adv-x="351" 
d="M317 238h-204v-104c0 -52 19 -79 67 -79c47 0 66 27 66 79v42h71v-33c0 -107 -50 -154 -140 -154s-140 47 -140 154v232c0 107 50 154 140 154s140 -47 140 -154v-137zM113 384v-82h133v82c0 52 -19 79 -66 79c-48 0 -67 -27 -67 -79zM161 693l66 -123h-51l-93 123h78z
" />
    <glyph glyph-name="eacute" unicode="&#xe9;" horiz-adv-x="351" 
d="M317 238h-204v-104c0 -52 19 -79 67 -79c47 0 66 27 66 79v42h71v-33c0 -107 -50 -154 -140 -154s-140 47 -140 154v232c0 107 50 154 140 154s140 -47 140 -154v-137zM113 384v-82h133v82c0 52 -19 79 -66 79c-48 0 -67 -27 -67 -79zM129 570l65 123h79l-93 -123h-51z
" />
    <glyph glyph-name="ecircumflex" unicode="&#xea;" horiz-adv-x="351" 
d="M317 238h-204v-104c0 -52 19 -79 67 -79c47 0 66 27 66 79v42h71v-33c0 -107 -50 -154 -140 -154s-140 47 -140 154v232c0 107 50 154 140 154s140 -47 140 -154v-137zM113 384v-82h133v82c0 52 -19 79 -66 79c-48 0 -67 -27 -67 -79zM236 570l-59 70l-59 -70h-53l82 123
h60l83 -123h-54z" />
    <glyph glyph-name="edieresis" unicode="&#xeb;" horiz-adv-x="351" 
d="M317 238h-204v-104c0 -52 19 -79 67 -79c47 0 66 27 66 79v42h71v-33c0 -107 -50 -154 -140 -154s-140 47 -140 154v232c0 107 50 154 140 154s140 -47 140 -154v-137zM113 384v-82h133v82c0 52 -19 79 -66 79c-48 0 -67 -27 -67 -79zM146 583h-71v89h71v-89zM280 583
h-72v89h72v-89z" />
    <glyph glyph-name="igrave" unicode="&#xec;" horiz-adv-x="170" 
d="M69 693l66 -123h-51l-93 123h78zM123 0h-76v518h76v-518z" />
    <glyph glyph-name="iacute" unicode="&#xed;" horiz-adv-x="170" 
d="M37 570l65 123h79l-93 -123h-51zM123 0h-76v518h76v-518z" />
    <glyph glyph-name="icircumflex" unicode="&#xee;" horiz-adv-x="170" 
d="M123 0h-76v518h76v-518zM144 570l-59 70l-59 -70h-53l82 123h60l83 -123h-54z" />
    <glyph glyph-name="idieresis" unicode="&#xef;" horiz-adv-x="170" 
d="M54 583h-71v89h71v-89zM188 583h-72v89h72v-89zM123 0h-76v518h76v-518z" />
    <glyph glyph-name="eth" unicode="&#xf0;" horiz-adv-x="364" 
d="M181 557l-22 22l48 48c-13 7 -31 11 -54 11h-31l13 62h28c39 0 71 -8 95 -22l22 22h44l-42 -42c27 -29 40 -73 40 -133v-382c0 -107 -52 -154 -142 -154c-91 0 -143 47 -143 154v246c0 108 46 140 107 140c48 0 84 -28 102 -66v63c0 36 -4 62 -16 80zM246 134v242
c0 47 -32 87 -74 87c-39 0 -59 -17 -59 -78v-251c0 -52 19 -79 67 -79c47 0 66 27 66 79z" />
    <glyph glyph-name="ntilde" unicode="&#xf1;" horiz-adv-x="375" 
d="M123 0h-76v518h71v-69c14 44 53 80 107 80c62 0 108 -32 108 -140v-389h-76v385c0 61 -21 78 -60 78c-42 0 -74 -40 -74 -87v-376zM264 672h41c-2 -62 -29 -88 -70 -88c-43 0 -67 32 -98 32c-20 0 -25 -17 -27 -35h-40c1 62 28 88 69 88c42 0 67 -33 98 -33
c20 0 25 18 27 36z" />
    <glyph glyph-name="ograve" unicode="&#xf2;" 
d="M322 143c0 -107 -52 -154 -142 -154c-91 0 -143 47 -143 154v232c0 107 52 154 143 154c90 0 142 -47 142 -154v-232zM246 384c0 52 -19 79 -66 79c-48 0 -67 -27 -67 -79v-250c0 -52 19 -79 67 -79c47 0 66 27 66 79v250zM162 693l66 -123h-51l-93 123h78z" />
    <glyph glyph-name="oacute" unicode="&#xf3;" 
d="M322 143c0 -107 -52 -154 -142 -154c-91 0 -143 47 -143 154v232c0 107 52 154 143 154c90 0 142 -47 142 -154v-232zM246 384c0 52 -19 79 -66 79c-48 0 -67 -27 -67 -79v-250c0 -52 19 -79 67 -79c47 0 66 27 66 79v250zM130 570l65 123h79l-93 -123h-51z" />
    <glyph glyph-name="ocircumflex" unicode="&#xf4;" 
d="M322 143c0 -107 -52 -154 -142 -154c-91 0 -143 47 -143 154v232c0 107 52 154 143 154c90 0 142 -47 142 -154v-232zM246 384c0 52 -19 79 -66 79c-48 0 -67 -27 -67 -79v-250c0 -52 19 -79 67 -79c47 0 66 27 66 79v250zM238 570l-59 70l-59 -70h-53l82 123h60l83 -123
h-54z" />
    <glyph glyph-name="otilde" unicode="&#xf5;" 
d="M322 143c0 -107 -52 -154 -142 -154c-91 0 -143 47 -143 154v232c0 107 52 154 143 154c90 0 142 -47 142 -154v-232zM246 384c0 52 -19 79 -66 79c-48 0 -67 -27 -67 -79v-250c0 -52 19 -79 67 -79c47 0 66 27 66 79v250zM256 672h41c-2 -62 -29 -88 -70 -88
c-43 0 -67 32 -98 32c-20 0 -25 -17 -27 -35h-40c1 62 28 88 69 88c42 0 67 -33 98 -33c20 0 25 18 27 36z" />
    <glyph glyph-name="odieresis" unicode="&#xf6;" 
d="M322 143c0 -107 -52 -154 -142 -154c-91 0 -143 47 -143 154v232c0 107 52 154 143 154c90 0 142 -47 142 -154v-232zM246 384c0 52 -19 79 -66 79c-48 0 -67 -27 -67 -79v-250c0 -52 19 -79 67 -79c47 0 66 27 66 79v250zM148 583h-71v89h71v-89zM282 583h-72v89h72v-89
z" />
    <glyph glyph-name="divide" unicode="&#xf7;" 
d="M124 480c0 31 24 55 55 55c32 0 55 -24 55 -55c0 -32 -23 -56 -55 -56c-31 0 -55 24 -55 56zM124 214c0 32 24 55 55 55c32 0 55 -23 55 -55s-23 -56 -55 -56c-31 0 -55 24 -55 56zM322 382v-65h-285v65h285z" />
    <glyph glyph-name="oslash" unicode="&#xf8;" 
d="M322 143c0 -107 -52 -154 -142 -154c-29 0 -55 5 -75 15l-18 -45l-51 22l25 61c-16 25 -24 58 -24 101v232c0 107 52 154 143 154c28 0 53 -5 73 -15l19 45l50 -22l-25 -61c16 -24 25 -58 25 -101v-232zM180 55c47 0 66 27 66 79v221l-114 -284c11 -11 26 -16 48 -16z
M113 384v-219l113 283c-10 10 -26 15 -46 15c-48 0 -67 -27 -67 -79z" />
    <glyph glyph-name="ugrave" unicode="&#xf9;" horiz-adv-x="375" 
d="M252 142v144v232h76v-349c0 -90 1 -124 10 -169h-73c-6 16 -9 38 -10 63c-16 -42 -54 -74 -105 -74c-62 0 -108 32 -108 140v389h76v-385c0 -61 21 -78 60 -78c42 0 74 40 74 87zM170 693l66 -123h-51l-93 123h78z" />
    <glyph glyph-name="uacute" unicode="&#xfa;" horiz-adv-x="375" 
d="M252 142v144v232h76v-349c0 -90 1 -124 10 -169h-73c-6 16 -9 38 -10 63c-16 -42 -54 -74 -105 -74c-62 0 -108 32 -108 140v389h76v-385c0 -61 21 -78 60 -78c42 0 74 40 74 87zM138 570l65 123h79l-93 -123h-51z" />
    <glyph glyph-name="ucircumflex" unicode="&#xfb;" horiz-adv-x="375" 
d="M252 142v144v232h76v-349c0 -90 1 -124 10 -169h-73c-6 16 -9 38 -10 63c-16 -42 -54 -74 -105 -74c-62 0 -108 32 -108 140v389h76v-385c0 -61 21 -78 60 -78c42 0 74 40 74 87zM246 570l-59 70l-59 -70h-53l82 123h60l83 -123h-54z" />
    <glyph glyph-name="udieresis" unicode="&#xfc;" horiz-adv-x="375" 
d="M252 142v144v232h76v-349c0 -90 1 -124 10 -169h-73c-6 16 -9 38 -10 63c-16 -42 -54 -74 -105 -74c-62 0 -108 32 -108 140v389h76v-385c0 -61 21 -78 60 -78c42 0 74 40 74 87zM156 583h-71v89h71v-89zM290 583h-72v89h72v-89z" />
    <glyph glyph-name="yacute" unicode="&#xfd;" horiz-adv-x="337" 
d="M84 518l62 -281c12 -55 21 -114 26 -160c6 46 15 105 27 160l61 281h71l-125 -558c-13 -60 -37 -95 -114 -95c-19 0 -38 2 -49 5v61c12 -4 24 -5 36 -5c28 0 40 10 47 39c2 11 0 26 -3 41l-116 512h77zM116 570l65 123h79l-93 -123h-51z" />
    <glyph glyph-name="thorn" unicode="&#xfe;" horiz-adv-x="370" 
d="M123 376v-234c0 -47 32 -87 74 -87c39 0 60 17 60 78v252c0 61 -21 78 -60 78c-42 0 -74 -40 -74 -87zM333 389v-260c0 -108 -46 -140 -108 -140c-49 0 -85 29 -102 67v-182h-76v826h76v-239c17 39 53 68 102 68c62 0 108 -32 108 -140z" />
    <glyph glyph-name="ydieresis" unicode="&#xff;" horiz-adv-x="337" 
d="M84 518l62 -281c12 -55 21 -114 26 -160c6 46 15 105 27 160l61 281h71l-125 -558c-13 -60 -37 -95 -114 -95c-19 0 -38 2 -49 5v61c12 -4 24 -5 36 -5c28 0 40 10 47 39c2 11 0 26 -3 41l-116 512h77zM141 583h-71v89h71v-89zM275 583h-72v89h72v-89z" />
    <glyph glyph-name="Amacron" unicode="&#x100;" horiz-adv-x="371" 
d="M274 0l-20 113h-148l-19 -113h-77l121 700h107l121 -700h-85zM149 364l-31 -180h124l-31 180c-11 64 -22 141 -31 237c-9 -96 -20 -173 -31 -237zM296 761h-222v52h222v-52z" />
    <glyph glyph-name="amacron" unicode="&#x101;" horiz-adv-x="357" 
d="M252 0c-6 16 -9 40 -10 65c-15 -42 -52 -76 -105 -76c-61 0 -108 29 -108 133v9c0 185 210 154 210 247v7c0 51 -18 79 -63 79c-46 0 -64 -28 -64 -79v-37h-71v28c0 107 48 153 138 153c88 0 136 -46 136 -153v-207c0 -90 1 -124 10 -169h-73zM239 142v135
c-54 -36 -134 -50 -134 -140v-9c0 -59 21 -74 60 -74c42 0 74 40 74 88zM289 594h-222v52h222v-52z" />
    <glyph glyph-name="Abreve" unicode="&#x102;" horiz-adv-x="371" 
d="M274 0l-20 113h-148l-19 -113h-77l121 700h107l121 -700h-85zM149 364l-31 -180h124l-31 180c-11 64 -22 141 -31 237c-9 -96 -20 -173 -31 -237zM185 797c42 0 66 19 66 63h43c0 -62 -31 -112 -109 -112c-77 0 -109 50 -109 112h44c0 -44 24 -63 65 -63z" />
    <glyph glyph-name="abreve" unicode="&#x103;" horiz-adv-x="357" 
d="M252 0c-6 16 -9 40 -10 65c-15 -42 -52 -76 -105 -76c-61 0 -108 29 -108 133v9c0 185 210 154 210 247v7c0 51 -18 79 -63 79c-46 0 -64 -28 -64 -79v-37h-71v28c0 107 48 153 138 153c88 0 136 -46 136 -153v-207c0 -90 1 -124 10 -169h-73zM239 142v135
c-54 -36 -134 -50 -134 -140v-9c0 -59 21 -74 60 -74c42 0 74 40 74 88zM178 630c42 0 66 19 66 63h43c0 -62 -31 -112 -109 -112c-77 0 -109 50 -109 112h44c0 -44 24 -63 65 -63z" />
    <glyph glyph-name="Aogonek" unicode="&#x104;" horiz-adv-x="371" 
d="M274 0l-20 113h-148l-19 -113h-77l121 700h107l121 -700h-23c-47 -17 -69 -37 -69 -65c0 -25 17 -34 47 -34c13 0 28 2 45 8v-33c-19 -7 -40 -11 -66 -11c-45 0 -84 14 -85 56c0 47 49 70 79 79h-13zM149 364l-31 -180h124l-31 180c-11 64 -22 141 -31 237
c-9 -96 -20 -173 -31 -237z" />
    <glyph glyph-name="aogonek" unicode="&#x105;" horiz-adv-x="357" 
d="M325 -91v-33c-19 -7 -40 -11 -66 -11c-45 0 -84 14 -85 56c0 47 48 70 78 79c-6 16 -9 40 -10 65c-15 -42 -52 -76 -105 -76c-61 0 -108 29 -108 133v9c0 185 210 154 210 247v7c0 51 -18 79 -63 79c-46 0 -64 -28 -64 -79v-37h-71v28c0 107 48 153 138 153
c88 0 136 -46 136 -153v-207c0 -90 1 -124 10 -169h-23c-47 -17 -69 -37 -69 -65c0 -25 17 -34 47 -34c13 0 28 2 45 8zM239 142v135c-54 -36 -134 -50 -134 -140v-9c0 -59 21 -74 60 -74c42 0 74 40 74 88z" />
    <glyph glyph-name="Cacute" unicode="&#x106;" horiz-adv-x="379" 
d="M122 148c0 -56 21 -84 72 -84c50 0 72 28 72 84v126h80v-115c0 -119 -57 -170 -155 -170c-97 0 -154 51 -154 170v382c0 119 57 170 154 170c98 0 155 -51 155 -170v-94h-80v105c0 56 -22 84 -72 84c-51 0 -72 -28 -72 -84v-404zM143 737l65 123h79l-93 -123h-51z" />
    <glyph glyph-name="cacute" unicode="&#x107;" horiz-adv-x="349" 
d="M317 333h-71v51c0 52 -19 79 -66 79c-48 0 -67 -27 -67 -79v-250c0 -52 19 -79 67 -79c47 0 66 27 66 79v61h71v-52c0 -107 -50 -154 -140 -154s-140 47 -140 154v232c0 107 50 154 140 154s140 -47 140 -154v-42zM130 570l65 123h79l-93 -123h-51z" />
    <glyph glyph-name="Ccircumflex" unicode="&#x108;" horiz-adv-x="379" 
d="M122 148c0 -56 21 -84 72 -84c50 0 72 28 72 84v126h80v-115c0 -119 -57 -170 -155 -170c-97 0 -154 51 -154 170v382c0 119 57 170 154 170c98 0 155 -51 155 -170v-94h-80v105c0 56 -22 84 -72 84c-51 0 -72 -28 -72 -84v-404zM251 737l-59 70l-59 -70h-53l82 123h60
l83 -123h-54z" />
    <glyph glyph-name="ccircumflex" unicode="&#x109;" horiz-adv-x="349" 
d="M317 333h-71v51c0 52 -19 79 -66 79c-48 0 -67 -27 -67 -79v-250c0 -52 19 -79 67 -79c47 0 66 27 66 79v61h71v-52c0 -107 -50 -154 -140 -154s-140 47 -140 154v232c0 107 50 154 140 154s140 -47 140 -154v-42zM238 570l-59 70l-59 -70h-53l82 123h60l83 -123h-54z
" />
    <glyph glyph-name="Cdotaccent" unicode="&#x10a;" horiz-adv-x="379" 
d="M122 148c0 -56 21 -84 72 -84c50 0 72 28 72 84v126h80v-115c0 -119 -57 -170 -155 -170c-97 0 -154 51 -154 170v382c0 119 57 170 154 170c98 0 155 -51 155 -170v-94h-80v105c0 56 -22 84 -72 84c-51 0 -72 -28 -72 -84v-404zM228 750h-71v89h71v-89z" />
    <glyph glyph-name="cdotaccent" unicode="&#x10b;" horiz-adv-x="349" 
d="M317 333h-71v51c0 52 -19 79 -66 79c-48 0 -67 -27 -67 -79v-250c0 -52 19 -79 67 -79c47 0 66 27 66 79v61h71v-52c0 -107 -50 -154 -140 -154s-140 47 -140 154v232c0 107 50 154 140 154s140 -47 140 -154v-42zM215 583h-71v89h71v-89z" />
    <glyph glyph-name="Ccaron" unicode="&#x10c;" horiz-adv-x="379" 
d="M122 148c0 -56 21 -84 72 -84c50 0 72 28 72 84v126h80v-115c0 -119 -57 -170 -155 -170c-97 0 -154 51 -154 170v382c0 119 57 170 154 170c98 0 155 -51 155 -170v-94h-80v105c0 56 -22 84 -72 84c-51 0 -72 -28 -72 -84v-404zM192 790l59 70h54l-83 -123h-60l-82 123
h53z" />
    <glyph glyph-name="ccaron" unicode="&#x10d;" horiz-adv-x="349" 
d="M317 333h-71v51c0 52 -19 79 -66 79c-48 0 -67 -27 -67 -79v-250c0 -52 19 -79 67 -79c47 0 66 27 66 79v61h71v-52c0 -107 -50 -154 -140 -154s-140 47 -140 154v232c0 107 50 154 140 154s140 -47 140 -154v-42zM179 623l59 70h54l-83 -123h-60l-82 123h53z" />
    <glyph glyph-name="Dcaron" unicode="&#x10e;" horiz-adv-x="402" 
d="M51 0v700h140c83 0 167 -29 167 -163v-374c0 -134 -84 -163 -167 -163h-140zM185 626h-49v-552h49c64 0 88 24 88 87v378c0 63 -24 87 -88 87zM188 790l59 70h54l-83 -123h-60l-82 123h53z" />
    <glyph glyph-name="dcaron" unicode="&#x10f;" horiz-adv-x="467" 
d="M383 577v123h71v-123l-73 -98l-8 4l46 94h-36zM247 142v234c0 47 -32 87 -74 87c-39 0 -60 -17 -60 -78v-252c0 -61 21 -78 60 -78c42 0 74 40 74 87zM260 0c-6 16 -9 38 -10 63c-16 -42 -54 -74 -105 -74c-62 0 -108 32 -108 140v260c0 108 46 140 108 140
c48 0 85 -29 102 -68v239h76v-531c0 -90 1 -124 10 -169h-73z" />
    <glyph glyph-name="Dcroat" unicode="&#x110;" horiz-adv-x="403" 
d="M52 0v333h-36v64h36v303h140c83 0 167 -29 167 -163v-374c0 -134 -84 -163 -167 -163h-140zM186 626h-49v-229h75v-64h-75v-259h49c64 0 88 24 88 87v378c0 63 -24 87 -88 87z" />
    <glyph glyph-name="dcroat" unicode="&#x111;" horiz-adv-x="371" 
d="M260 0c-6 16 -9 38 -10 63c-16 -42 -54 -74 -105 -74c-62 0 -108 32 -108 140v260c0 108 46 140 108 140c48 0 85 -29 102 -68v113h-84v54h84v72h76v-72h39v-54h-39v-405c0 -90 1 -124 10 -169h-73zM247 142v234c0 47 -32 87 -74 87c-39 0 -60 -17 -60 -78v-252
c0 -61 21 -78 60 -78c42 0 74 40 74 87z" />
    <glyph glyph-name="Emacron" unicode="&#x112;" horiz-adv-x="327" 
d="M136 328v-254h166v-74h-251v700h246v-74h-161v-224h143v-74h-143zM285 761h-222v52h222v-52z" />
    <glyph glyph-name="emacron" unicode="&#x113;" horiz-adv-x="351" 
d="M317 238h-204v-104c0 -52 19 -79 67 -79c47 0 66 27 66 79v42h71v-33c0 -107 -50 -154 -140 -154s-140 47 -140 154v232c0 107 50 154 140 154s140 -47 140 -154v-137zM113 384v-82h133v82c0 52 -19 79 -66 79c-48 0 -67 -27 -67 -79zM288 594h-222v52h222v-52z" />
    <glyph glyph-name="Ebreve" unicode="&#x114;" horiz-adv-x="327" 
d="M136 328v-254h166v-74h-251v700h246v-74h-161v-224h143v-74h-143zM174 797c42 0 66 19 66 63h43c0 -62 -31 -112 -109 -112c-77 0 -109 50 -109 112h44c0 -44 24 -63 65 -63z" />
    <glyph glyph-name="ebreve" unicode="&#x115;" horiz-adv-x="351" 
d="M317 238h-204v-104c0 -52 19 -79 67 -79c47 0 66 27 66 79v42h71v-33c0 -107 -50 -154 -140 -154s-140 47 -140 154v232c0 107 50 154 140 154s140 -47 140 -154v-137zM113 384v-82h133v82c0 52 -19 79 -66 79c-48 0 -67 -27 -67 -79zM177 630c42 0 66 19 66 63h43
c0 -62 -31 -112 -109 -112c-77 0 -109 50 -109 112h44c0 -44 24 -63 65 -63z" />
    <glyph glyph-name="Edotaccent" unicode="&#x116;" horiz-adv-x="327" 
d="M136 328v-254h166v-74h-251v700h246v-74h-161v-224h143v-74h-143zM210 750h-71v89h71v-89z" />
    <glyph glyph-name="edotaccent" unicode="&#x117;" horiz-adv-x="351" 
d="M317 238h-204v-104c0 -52 19 -79 67 -79c47 0 66 27 66 79v42h71v-33c0 -107 -50 -154 -140 -154s-140 47 -140 154v232c0 107 50 154 140 154s140 -47 140 -154v-137zM113 384v-82h133v82c0 52 -19 79 -66 79c-48 0 -67 -27 -67 -79zM214 583h-71v89h71v-89z" />
    <glyph glyph-name="Eogonek" unicode="&#x118;" horiz-adv-x="327" 
d="M302 -91v-33c-20 -7 -39 -11 -65 -11c-48 0 -86 13 -86 55c0 44 39 68 88 80h-188v700h246v-74h-161v-224h143v-74h-143v-254h166v-74h-13c-54 -17 -79 -37 -79 -65c0 -25 15 -34 48 -34c13 0 27 2 44 8z" />
    <glyph glyph-name="eogonek" unicode="&#x119;" horiz-adv-x="351" 
d="M312 -91v-33c-19 -7 -40 -11 -66 -11c-49 0 -89 14 -89 59c0 35 22 55 41 66c-7 0 -14 -1 -21 -1c-90 0 -140 47 -140 154v232c0 107 50 154 140 154s140 -47 140 -154v-137h-204v-104c0 -52 19 -79 67 -79c47 0 66 27 66 79v42h71v-33c0 -75 -24 -120 -69 -141
c-23 -17 -33 -38 -33 -61c0 -29 17 -40 52 -40c13 0 28 2 45 8zM113 384v-82h133v82c0 52 -19 79 -66 79c-48 0 -67 -27 -67 -79z" />
    <glyph glyph-name="Ecaron" unicode="&#x11a;" horiz-adv-x="327" 
d="M136 328v-254h166v-74h-251v700h246v-74h-161v-224h143v-74h-143zM174 790l59 70h54l-83 -123h-60l-82 123h53z" />
    <glyph glyph-name="ecaron" unicode="&#x11b;" horiz-adv-x="351" 
d="M317 238h-204v-104c0 -52 19 -79 67 -79c47 0 66 27 66 79v42h71v-33c0 -107 -50 -154 -140 -154s-140 47 -140 154v232c0 107 50 154 140 154s140 -47 140 -154v-137zM113 384v-82h133v82c0 52 -19 79 -66 79c-48 0 -67 -27 -67 -79zM177 623l59 70h54l-83 -123h-60
l-82 123h53z" />
    <glyph glyph-name="Gcircumflex" unicode="&#x11c;" horiz-adv-x="385" 
d="M266 465v87c0 56 -22 84 -72 84c-51 0 -72 -28 -72 -84v-404c0 -56 21 -84 72 -84c50 0 72 28 72 84v172h-72v69h154v-389h-44l-8 59c-21 -48 -64 -70 -121 -70c-82 0 -138 46 -138 170v382c0 119 57 170 154 170c98 0 155 -51 155 -170v-76h-80zM250 737l-59 70l-59 -70
h-53l82 123h60l83 -123h-54z" />
    <glyph glyph-name="gcircumflex" unicode="&#x11d;" horiz-adv-x="371" 
d="M35 -43c0 38 15 64 42 78c-20 14 -29 37 -29 65c0 38 19 63 41 76c-37 20 -57 60 -57 127v82c0 107 50 144 140 144c56 0 98 -15 120 -54c5 27 17 43 45 43c12 0 16 0 24 -3v-63c-8 1 -17 2 -24 2c-14 0 -20 -11 -20 -32v-119c0 -108 -52 -145 -142 -145
c-16 0 -30 1 -44 3c-13 -6 -19 -20 -19 -35c0 -17 10 -35 36 -35h88c85 0 125 -34 125 -113c0 -78 -47 -115 -136 -115h-71c-86 0 -119 36 -119 94zM242 392c0 51 -19 79 -67 79s-67 -28 -67 -79v-97c0 -51 19 -79 67 -79s67 28 67 79v97zM166 -88h50c46 0 70 14 70 54
c0 42 -21 52 -60 52h-79c-39 0 -50 -28 -50 -51c0 -36 13 -55 69 -55zM240 570l-59 70l-59 -70h-53l82 123h60l83 -123h-54z" />
    <glyph glyph-name="Gbreve" unicode="&#x11e;" horiz-adv-x="385" 
d="M266 465v87c0 56 -22 84 -72 84c-51 0 -72 -28 -72 -84v-404c0 -56 21 -84 72 -84c50 0 72 28 72 84v172h-72v69h154v-389h-44l-8 59c-21 -48 -64 -70 -121 -70c-82 0 -138 46 -138 170v382c0 119 57 170 154 170c98 0 155 -51 155 -170v-76h-80zM191 797
c42 0 66 19 66 63h43c0 -62 -31 -112 -109 -112c-77 0 -109 50 -109 112h44c0 -44 24 -63 65 -63z" />
    <glyph glyph-name="gbreve" unicode="&#x11f;" horiz-adv-x="371" 
d="M35 -43c0 38 15 64 42 78c-20 14 -29 37 -29 65c0 38 19 63 41 76c-37 20 -57 60 -57 127v82c0 107 50 144 140 144c56 0 98 -15 120 -54c5 27 17 43 45 43c12 0 16 0 24 -3v-63c-8 1 -17 2 -24 2c-14 0 -20 -11 -20 -32v-119c0 -108 -52 -145 -142 -145
c-16 0 -30 1 -44 3c-13 -6 -19 -20 -19 -35c0 -17 10 -35 36 -35h88c85 0 125 -34 125 -113c0 -78 -47 -115 -136 -115h-71c-86 0 -119 36 -119 94zM242 392c0 51 -19 79 -67 79s-67 -28 -67 -79v-97c0 -51 19 -79 67 -79s67 28 67 79v97zM166 -88h50c46 0 70 14 70 54
c0 42 -21 52 -60 52h-79c-39 0 -50 -28 -50 -51c0 -36 13 -55 69 -55zM181 630c42 0 66 19 66 63h43c0 -62 -31 -112 -109 -112c-77 0 -109 50 -109 112h44c0 -44 24 -63 65 -63z" />
    <glyph glyph-name="Gdotaccent" unicode="&#x120;" horiz-adv-x="385" 
d="M266 465v87c0 56 -22 84 -72 84c-51 0 -72 -28 -72 -84v-404c0 -56 21 -84 72 -84c50 0 72 28 72 84v172h-72v69h154v-389h-44l-8 59c-21 -48 -64 -70 -121 -70c-82 0 -138 46 -138 170v382c0 119 57 170 154 170c98 0 155 -51 155 -170v-76h-80zM227 750h-71v89h71v-89z
" />
    <glyph glyph-name="gdotaccent" unicode="&#x121;" horiz-adv-x="371" 
d="M35 -43c0 38 15 64 42 78c-20 14 -29 37 -29 65c0 38 19 63 41 76c-37 20 -57 60 -57 127v82c0 107 50 144 140 144c56 0 98 -15 120 -54c5 27 17 43 45 43c12 0 16 0 24 -3v-63c-8 1 -17 2 -24 2c-14 0 -20 -11 -20 -32v-119c0 -108 -52 -145 -142 -145
c-16 0 -30 1 -44 3c-13 -6 -19 -20 -19 -35c0 -17 10 -35 36 -35h88c85 0 125 -34 125 -113c0 -78 -47 -115 -136 -115h-71c-86 0 -119 36 -119 94zM242 392c0 51 -19 79 -67 79s-67 -28 -67 -79v-97c0 -51 19 -79 67 -79s67 28 67 79v97zM166 -88h50c46 0 70 14 70 54
c0 42 -21 52 -60 52h-79c-39 0 -50 -28 -50 -51c0 -36 13 -55 69 -55zM218 583h-71v89h71v-89z" />
    <glyph glyph-name="uni0122" unicode="&#x122;" horiz-adv-x="385" 
d="M266 465v87c0 56 -22 84 -72 84c-51 0 -72 -28 -72 -84v-404c0 -56 21 -84 72 -84c50 0 72 28 72 84v172h-72v69h154v-389h-44l-8 59c-21 -48 -64 -70 -121 -70c-82 0 -138 46 -138 170v382c0 119 57 170 154 170c98 0 155 -51 155 -170v-76h-80zM160 -141v89h71v-89
l-70 -96l-9 5l44 91h-36z" />
    <glyph glyph-name="uni0123" unicode="&#x123;" horiz-adv-x="371" 
d="M217 672v-89h-71v89l71 96l8 -5l-43 -91h35zM35 -43c0 38 15 64 42 78c-20 14 -29 37 -29 65c0 38 19 63 41 76c-37 20 -57 60 -57 127v82c0 107 50 144 140 144c56 0 98 -15 120 -54c5 27 17 43 45 43c12 0 16 0 24 -3v-63c-8 1 -17 2 -24 2c-14 0 -20 -11 -20 -32v-119
c0 -108 -52 -145 -142 -145c-16 0 -30 1 -44 3c-13 -6 -19 -20 -19 -35c0 -17 10 -35 36 -35h88c85 0 125 -34 125 -113c0 -78 -47 -115 -136 -115h-71c-86 0 -119 36 -119 94zM242 392c0 51 -19 79 -67 79s-67 -28 -67 -79v-97c0 -51 19 -79 67 -79s67 28 67 79v97z
M166 -88h50c46 0 70 14 70 54c0 42 -21 52 -60 52h-79c-39 0 -50 -28 -50 -51c0 -36 13 -55 69 -55z" />
    <glyph glyph-name="Hcircumflex" unicode="&#x124;" horiz-adv-x="417" 
d="M136 328v-328h-85v700h85v-298h145v298h85v-700h-85v328h-145zM267 737l-59 70l-59 -70h-53l82 123h60l83 -123h-54z" />
    <glyph glyph-name="hcircumflex" unicode="&#x125;" horiz-adv-x="375" 
d="M333 0h-76v385c0 61 -21 78 -60 78c-41 0 -74 -40 -74 -87v-376h-76v700h76v-239c17 39 53 68 102 68c62 0 108 -32 108 -140v-389zM145 737l-59 70l-59 -70h-53l82 123h60l83 -123h-54z" />
    <glyph glyph-name="Hbar" unicode="&#x126;" horiz-adv-x="418" 
d="M137 328v-328h-85v518h-36v64h36v118h85v-118h145v118h85v-118h35v-64h-35v-518h-85v328h-145zM137 402h145v116h-145v-116z" />
    <glyph glyph-name="hbar" unicode="&#x127;" horiz-adv-x="376" 
d="M334 0h-76v385c0 61 -21 78 -60 78c-41 0 -74 -40 -74 -87v-376h-76v574h-40v54h40v72h76v-72h83v-54h-83v-113c17 39 53 68 102 68c62 0 108 -32 108 -140v-389z" />
    <glyph glyph-name="Itilde" unicode="&#x128;" horiz-adv-x="184" 
d="M49 0v700h85v-700h-85zM169 839h41c-2 -62 -29 -88 -70 -88c-43 0 -67 32 -98 32c-20 0 -25 -17 -27 -35h-40c1 62 28 88 69 88c42 0 67 -33 98 -33c20 0 25 18 27 36z" />
    <glyph glyph-name="itilde" unicode="&#x129;" horiz-adv-x="170" 
d="M162 672h41c-2 -62 -29 -88 -70 -88c-43 0 -67 32 -98 32c-20 0 -25 -17 -27 -35h-40c1 62 28 88 69 88c42 0 67 -33 98 -33c20 0 25 18 27 36zM123 0h-76v518h76v-518z" />
    <glyph glyph-name="Imacron" unicode="&#x12a;" horiz-adv-x="184" 
d="M49 0v700h85v-700h-85zM203 761h-222v52h222v-52z" />
    <glyph glyph-name="imacron" unicode="&#x12b;" horiz-adv-x="170" 
d="M196 594h-222v52h222v-52zM123 0h-76v518h76v-518z" />
    <glyph glyph-name="Ibreve" unicode="&#x12c;" horiz-adv-x="184" 
d="M49 0v700h85v-700h-85zM92 797c42 0 66 19 66 63h43c0 -62 -31 -112 -109 -112c-77 0 -109 50 -109 112h44c0 -44 24 -63 65 -63z" />
    <glyph glyph-name="ibreve" unicode="&#x12d;" horiz-adv-x="170" 
d="M85 630c42 0 66 19 66 63h43c0 -62 -31 -112 -109 -112c-77 0 -109 50 -109 112h44c0 -44 24 -63 65 -63zM123 0h-76v518h76v-518z" />
    <glyph glyph-name="Iogonek" unicode="&#x12e;" horiz-adv-x="184" 
d="M49 0v700h85v-700h-29c-27 -15 -41 -34 -41 -59c0 -29 17 -40 52 -40c13 0 28 2 45 8v-33c-19 -7 -40 -11 -66 -11c-49 0 -89 14 -89 59c0 41 35 66 54 76h-11z" />
    <glyph glyph-name="iogonek" unicode="&#x12f;" horiz-adv-x="170" 
d="M157 -91v-33c-19 -7 -40 -11 -66 -11c-49 0 -89 14 -89 59c0 41 35 66 54 76h-9v518h76v-518h-22c-27 -15 -41 -34 -41 -59c0 -29 17 -40 52 -40c13 0 28 2 45 8zM123 606h-76v94h76v-94z" />
    <glyph glyph-name="Idotaccent" unicode="&#x130;" horiz-adv-x="184" 
d="M49 0v700h85v-700h-85zM128 750h-71v89h71v-89z" />
    <glyph glyph-name="dotlessi" unicode="&#x131;" horiz-adv-x="170" 
d="M123 0h-76v518h76v-518z" />
    <glyph glyph-name="IJ" unicode="&#x132;" horiz-adv-x="547" 
d="M49 0v700h85v-700h-85zM502 151c0 -113 -57 -162 -154 -162c-98 0 -154 49 -154 162v123h79v-130c0 -54 22 -80 72 -80c51 0 72 26 72 80v556h85v-549z" />
    <glyph glyph-name="ij" unicode="&#x133;" horiz-adv-x="341" 
d="M123 0h-76v518h76v-518zM123 606h-76v94h76v-94zM293 606h-76v94h76v-94zM199 -135c-18 0 -32 3 -42 7v60c7 -3 16 -5 26 -5c26 0 34 13 34 44v547h76v-550c0 -73 -28 -103 -94 -103z" />
    <glyph glyph-name="Jcircumflex" unicode="&#x134;" horiz-adv-x="363" 
d="M318 151c0 -113 -57 -162 -154 -162c-98 0 -154 49 -154 162v123h79v-130c0 -54 22 -80 72 -80c51 0 72 26 72 80v556h85v-549zM334 737l-59 70l-59 -70h-53l82 123h60l83 -123h-54z" />
    <glyph glyph-name="jcircumflex" unicode="&#x135;" horiz-adv-x="170" 
d="M29 -135c-18 0 -32 3 -42 7v60c7 -3 16 -5 26 -5c26 0 34 13 34 44v547h76v-550c0 -73 -28 -103 -94 -103zM144 570l-59 70l-59 -70h-53l82 123h60l83 -123h-54z" />
    <glyph glyph-name="uni0136" unicode="&#x136;" horiz-adv-x="397" 
d="M136 700v-361c16 41 42 100 80 180l87 181h82l-135 -288l140 -412h-87l-107 322l-60 -120v-202h-85v700h85zM179 -141v89h71v-89l-70 -96l-9 5l44 91h-36z" />
    <glyph glyph-name="uni0137" unicode="&#x137;" horiz-adv-x="366" 
d="M123 700v-446c15 34 40 76 70 126l84 138h72l-123 -212l134 -306h-79l-104 239l-54 -88v-151h-76v700h76zM164 -141v89h71v-89l-70 -96l-9 5l44 91h-36z" />
    <glyph glyph-name="kgreenlandic" unicode="&#x138;" horiz-adv-x="366" 
d="M123 518v-264c15 34 37 70 70 126l84 138h72l-123 -212l134 -306h-79l-104 239l-54 -88v-151h-76v518h76z" />
    <glyph glyph-name="Lacute" unicode="&#x139;" horiz-adv-x="292" 
d="M51 0v700h85v-626h155v-74h-240zM74 737l65 123h79l-93 -123h-51z" />
    <glyph glyph-name="lacute" unicode="&#x13a;" horiz-adv-x="170" 
d="M123 0h-76v700h76v-700zM37 737l65 123h79l-93 -123h-51z" />
    <glyph glyph-name="uni013B" unicode="&#x13b;" horiz-adv-x="292" 
d="M51 0v700h85v-626h155v-74h-240zM135 -141v89h71v-89l-70 -96l-9 5l44 91h-36z" />
    <glyph glyph-name="uni013C" unicode="&#x13c;" horiz-adv-x="170" 
d="M123 0h-76v700h76v-700zM50 -141v89h71v-89l-70 -96l-9 5l44 91h-36z" />
    <glyph glyph-name="Lcaron" unicode="&#x13d;" horiz-adv-x="308" 
d="M212 577v123h71v-123l-73 -98l-8 4l46 94h-36zM51 0v700h85v-626h155v-74h-240z" />
    <glyph glyph-name="lcaron" unicode="&#x13e;" horiz-adv-x="267" 
d="M184 577v123h71v-123l-73 -98l-8 4l45 94h-35zM123 0h-76v700h76v-700z" />
    <glyph glyph-name="Ldot" unicode="&#x13f;" horiz-adv-x="308" 
d="M212 303v124h71v-124h-71zM51 0v700h85v-626h155v-74h-240z" />
    <glyph glyph-name="ldot" unicode="&#x140;" horiz-adv-x="267" 
d="M184 288v124h71v-124h-71zM123 0h-76v700h76v-700z" />
    <glyph glyph-name="Lslash" unicode="&#x141;" horiz-adv-x="292" 
d="M52 0v162l-36 -36v78l36 36v460h85v-375l107 107v-78l-107 -107v-173h155v-74h-240z" />
    <glyph glyph-name="lslash" unicode="&#x142;" horiz-adv-x="172" 
d="M124 0h-76v239l-42 -42v74l42 42v387h76v-311l42 42v-74l-42 -42v-315z" />
    <glyph glyph-name="Nacute" unicode="&#x143;" horiz-adv-x="424" 
d="M302 700h72v-700h-95l-124 425c-12 44 -27 109 -39 159c3 -50 6 -119 6 -161v-423h-73v700h114l106 -366c12 -44 27 -109 40 -158c-3 49 -7 118 -7 160v364zM163 737l65 123h79l-93 -123h-51z" />
    <glyph glyph-name="nacute" unicode="&#x144;" horiz-adv-x="375" 
d="M123 0h-76v518h71v-69c14 44 53 80 107 80c62 0 108 -32 108 -140v-389h-76v385c0 61 -21 78 -60 78c-42 0 -74 -40 -74 -87v-376zM138 570l65 123h79l-93 -123h-51z" />
    <glyph glyph-name="uni0145" unicode="&#x145;" horiz-adv-x="424" 
d="M302 700h72v-700h-95l-124 425c-12 44 -27 109 -39 159c3 -50 6 -119 6 -161v-423h-73v700h114l106 -366c12 -44 27 -109 40 -158c-3 49 -7 118 -7 160v364zM176 -141v89h71v-89l-70 -96l-9 5l44 91h-36z" />
    <glyph glyph-name="uni0146" unicode="&#x146;" horiz-adv-x="375" 
d="M123 0h-76v518h71v-69c14 44 53 80 107 80c62 0 108 -32 108 -140v-389h-76v385c0 61 -21 78 -60 78c-42 0 -74 -40 -74 -87v-376zM155 -141v89h71v-89l-70 -96l-9 5l44 91h-36z" />
    <glyph glyph-name="Ncaron" unicode="&#x147;" horiz-adv-x="424" 
d="M302 700h72v-700h-95l-124 425c-12 44 -27 109 -39 159c3 -50 6 -119 6 -161v-423h-73v700h114l106 -366c12 -44 27 -109 40 -158c-3 49 -7 118 -7 160v364zM211 790l59 70h54l-83 -123h-60l-82 123h53z" />
    <glyph glyph-name="ncaron" unicode="&#x148;" horiz-adv-x="375" 
d="M123 0h-76v518h71v-69c14 44 53 80 107 80c62 0 108 -32 108 -140v-389h-76v385c0 61 -21 78 -60 78c-42 0 -74 -40 -74 -87v-376zM187 623l59 70h54l-83 -123h-60l-82 123h53z" />
    <glyph glyph-name="napostrophe" unicode="&#x149;" horiz-adv-x="440" 
d="M12 577v123h72v-123l-74 -98l-8 4l46 94h-36zM188 0h-76v518h71v-69c14 44 53 80 107 80c62 0 108 -32 108 -140v-389h-76v385c0 61 -21 78 -60 78c-42 0 -74 -40 -74 -87v-376z" />
    <glyph glyph-name="Omacron" unicode="&#x14c;" horiz-adv-x="388" 
d="M37 159v382c0 119 57 170 157 170c99 0 157 -51 157 -170v-382c0 -119 -58 -170 -157 -170c-100 0 -157 51 -157 170zM122 148c0 -56 21 -84 72 -84c50 0 72 28 72 84v404c0 56 -22 84 -72 84c-51 0 -72 -28 -72 -84v-404zM305 761h-222v52h222v-52z" />
    <glyph glyph-name="omacron" unicode="&#x14d;" 
d="M322 143c0 -107 -52 -154 -142 -154c-91 0 -143 47 -143 154v232c0 107 52 154 143 154c90 0 142 -47 142 -154v-232zM246 384c0 52 -19 79 -66 79c-48 0 -67 -27 -67 -79v-250c0 -52 19 -79 67 -79c47 0 66 27 66 79v250zM290 594h-222v52h222v-52z" />
    <glyph glyph-name="Obreve" unicode="&#x14e;" horiz-adv-x="388" 
d="M37 159v382c0 119 57 170 157 170c99 0 157 -51 157 -170v-382c0 -119 -58 -170 -157 -170c-100 0 -157 51 -157 170zM122 148c0 -56 21 -84 72 -84c50 0 72 28 72 84v404c0 56 -22 84 -72 84c-51 0 -72 -28 -72 -84v-404zM194 797c42 0 66 19 66 63h43
c0 -62 -31 -112 -109 -112c-77 0 -109 50 -109 112h44c0 -44 24 -63 65 -63z" />
    <glyph glyph-name="obreve" unicode="&#x14f;" 
d="M322 143c0 -107 -52 -154 -142 -154c-91 0 -143 47 -143 154v232c0 107 52 154 143 154c90 0 142 -47 142 -154v-232zM246 384c0 52 -19 79 -66 79c-48 0 -67 -27 -67 -79v-250c0 -52 19 -79 67 -79c47 0 66 27 66 79v250zM179 630c42 0 66 19 66 63h43
c0 -62 -31 -112 -109 -112c-77 0 -109 50 -109 112h44c0 -44 24 -63 65 -63z" />
    <glyph glyph-name="Ohungarumlaut" unicode="&#x150;" horiz-adv-x="388" 
d="M37 159v382c0 119 57 170 157 170c99 0 157 -51 157 -170v-382c0 -119 -58 -170 -157 -170c-100 0 -157 51 -157 170zM122 148c0 -56 21 -84 72 -84c50 0 72 28 72 84v404c0 56 -22 84 -72 84c-51 0 -72 -28 -72 -84v-404zM212 737l59 123h71l-84 -123h-46zM92 737
l59 123h71l-84 -123h-46z" />
    <glyph glyph-name="ohungarumlaut" unicode="&#x151;" 
d="M322 143c0 -107 -52 -154 -142 -154c-91 0 -143 47 -143 154v232c0 107 52 154 143 154c90 0 142 -47 142 -154v-232zM246 384c0 52 -19 79 -66 79c-48 0 -67 -27 -67 -79v-250c0 -52 19 -79 67 -79c47 0 66 27 66 79v250zM197 570l59 123h71l-84 -123h-46zM77 570
l59 123h71l-84 -123h-46z" />
    <glyph glyph-name="OE" unicode="&#x152;" horiz-adv-x="542" 
d="M351 328v-254h166v-74h-305c-84 0 -168 29 -168 163v374c0 134 84 163 168 163h300v-74h-161v-224h143v-74h-143zM266 74v552h-48c-65 0 -89 -24 -89 -87v-378c0 -63 24 -87 89 -87h48z" />
    <glyph glyph-name="oe" unicode="&#x153;" horiz-adv-x="561" 
d="M527 238h-204v-104c0 -52 19 -79 67 -79s67 27 67 79v42h70v-33c0 -107 -45 -154 -132 -154c-53 0 -91 18 -111 60c-20 -42 -58 -60 -111 -60c-88 0 -136 47 -136 154v232c0 107 48 154 136 154c53 0 91 -19 111 -61c20 42 58 61 111 61c87 0 132 -47 132 -154v-137z
M247 134v251c0 51 -20 78 -67 78c-48 0 -67 -27 -67 -78v-251c0 -52 19 -79 67 -79c47 0 67 27 67 79zM323 385v-83h134v83c0 51 -19 78 -67 78s-67 -27 -67 -78z" />
    <glyph glyph-name="Racute" unicode="&#x154;" horiz-adv-x="399" 
d="M172 311h-36v-311h-85v700h147c84 0 162 -19 162 -154v-65c0 -82 -33 -118 -78 -134c46 -16 78 -53 78 -137v-28c0 -126 9 -151 23 -182h-92c-6 21 -16 56 -16 141v59c0 85 -23 111 -103 111zM136 385h54c64 0 85 19 85 83v75c0 63 -21 83 -85 83h-54v-241zM142 737
l65 123h79l-93 -123h-51z" />
    <glyph glyph-name="racute" unicode="&#x155;" horiz-adv-x="341" 
d="M123 0h-76v518h71v-68c14 44 51 79 105 79c61 0 100 -31 100 -138v-132h-71v126c0 61 -18 78 -57 78c-42 0 -72 -40 -72 -87v-376zM136 570l65 123h79l-93 -123h-51z" />
    <glyph glyph-name="uni0156" unicode="&#x156;" horiz-adv-x="399" 
d="M172 311h-36v-311h-85v700h147c84 0 162 -19 162 -154v-65c0 -82 -33 -118 -78 -134c46 -16 78 -53 78 -137v-28c0 -126 9 -151 23 -182h-92c-6 21 -16 56 -16 141v59c0 85 -23 111 -103 111zM136 385h54c64 0 85 19 85 83v75c0 63 -21 83 -85 83h-54v-241zM173 -141v89
h71v-89l-70 -96l-9 5l44 91h-36z" />
    <glyph glyph-name="uni0157" unicode="&#x157;" horiz-adv-x="341" 
d="M123 0h-76v518h71v-68c14 44 51 79 105 79c61 0 100 -31 100 -138v-132h-71v126c0 61 -18 78 -57 78c-42 0 -72 -40 -72 -87v-376zM50 -141v89h71v-89l-70 -96l-9 5l44 91h-36z" />
    <glyph glyph-name="Rcaron" unicode="&#x158;" horiz-adv-x="399" 
d="M172 311h-36v-311h-85v700h147c84 0 162 -19 162 -154v-65c0 -82 -33 -118 -78 -134c46 -16 78 -53 78 -137v-28c0 -126 9 -151 23 -182h-92c-6 21 -16 56 -16 141v59c0 85 -23 111 -103 111zM136 385h54c64 0 85 19 85 83v75c0 63 -21 83 -85 83h-54v-241zM191 790
l59 70h54l-83 -123h-60l-82 123h53z" />
    <glyph glyph-name="rcaron" unicode="&#x159;" horiz-adv-x="341" 
d="M123 0h-76v518h71v-68c14 44 51 79 105 79c61 0 100 -31 100 -138v-132h-71v126c0 61 -18 78 -57 78c-42 0 -72 -40 -72 -87v-376zM184 623l59 70h54l-83 -123h-60l-82 123h53z" />
    <glyph glyph-name="Sacute" unicode="&#x15a;" horiz-adv-x="364" 
d="M111 243v-95c0 -56 18 -84 68 -84c51 0 68 28 68 84v14c0 176 -216 150 -216 385v2c0 111 52 162 151 162c97 0 150 -51 150 -170v-65h-79v76c0 56 -18 84 -69 84c-50 0 -68 -28 -68 -84v-6c0 -177 216 -152 216 -386v-9c0 -111 -51 -162 -150 -162
c-98 0 -151 52 -151 170v84h80zM133 737l65 123h79l-93 -123h-51z" />
    <glyph glyph-name="sacute" unicode="&#x15b;" horiz-adv-x="338" 
d="M230 126v9c0 111 -198 72 -198 252v2c0 96 50 140 138 140s137 -45 137 -149v-25h-71v32c0 51 -16 80 -64 80s-64 -27 -64 -75v-5c0 -111 198 -76 198 -254v-2c0 -98 -50 -142 -137 -142c-89 0 -137 45 -137 149v33h70v-40c0 -51 17 -80 64 -80c48 0 64 27 64 75z
M120 570l65 123h79l-93 -123h-51z" />
    <glyph glyph-name="Scircumflex" unicode="&#x15c;" horiz-adv-x="364" 
d="M111 243v-95c0 -56 18 -84 68 -84c51 0 68 28 68 84v14c0 176 -216 150 -216 385v2c0 111 52 162 151 162c97 0 150 -51 150 -170v-65h-79v76c0 56 -18 84 -69 84c-50 0 -68 -28 -68 -84v-6c0 -177 216 -152 216 -386v-9c0 -111 -51 -162 -150 -162
c-98 0 -151 52 -151 170v84h80zM240 737l-59 70l-59 -70h-53l82 123h60l83 -123h-54z" />
    <glyph glyph-name="scircumflex" unicode="&#x15d;" horiz-adv-x="338" 
d="M230 126v9c0 111 -198 72 -198 252v2c0 96 50 140 138 140s137 -45 137 -149v-25h-71v32c0 51 -16 80 -64 80s-64 -27 -64 -75v-5c0 -111 198 -76 198 -254v-2c0 -98 -50 -142 -137 -142c-89 0 -137 45 -137 149v33h70v-40c0 -51 17 -80 64 -80c48 0 64 27 64 75z
M227 570l-59 70l-59 -70h-53l82 123h60l83 -123h-54z" />
    <glyph glyph-name="Scedilla" unicode="&#x15e;" horiz-adv-x="364" 
d="M219 -82c0 20 -12 28 -58 27v45c-85 7 -130 59 -130 169v84h80v-95c0 -56 18 -84 68 -84c51 0 68 28 68 84v14c0 176 -216 150 -216 385v2c0 111 52 162 151 162c97 0 150 -51 150 -170v-65h-79v76c0 56 -18 84 -69 84c-50 0 -68 -28 -68 -84v-6
c0 -177 216 -152 216 -386v-9c0 -107 -48 -158 -140 -162v-24c55 0 85 -9 85 -49c0 -36 -39 -51 -98 -51c-54 0 -92 12 -88 59h47c-2 -25 10 -34 41 -34c30 0 40 10 40 28z" />
    <glyph glyph-name="scedilla" unicode="&#x15f;" horiz-adv-x="338" 
d="M204 -82c0 20 -12 28 -58 27v46c-75 7 -114 52 -114 147v33h70v-40c0 -51 17 -80 64 -80c48 0 64 27 64 75v9c0 111 -198 72 -198 252v2c0 96 50 140 138 140s137 -45 137 -149v-25h-71v32c0 51 -16 80 -64 80s-64 -27 -64 -75v-5c0 -111 198 -76 198 -254v-2
c0 -95 -47 -139 -129 -142v-24c55 0 85 -9 85 -49c0 -36 -39 -51 -98 -51c-54 0 -92 12 -88 59h47c-2 -25 10 -34 41 -34c30 0 40 10 40 28z" />
    <glyph glyph-name="Scaron" unicode="&#x160;" horiz-adv-x="364" 
d="M111 243v-95c0 -56 18 -84 68 -84c51 0 68 28 68 84v14c0 176 -216 150 -216 385v2c0 111 52 162 151 162c97 0 150 -51 150 -170v-65h-79v76c0 56 -18 84 -69 84c-50 0 -68 -28 -68 -84v-6c0 -177 216 -152 216 -386v-9c0 -111 -51 -162 -150 -162
c-98 0 -151 52 -151 170v84h80zM181 790l59 70h54l-83 -123h-60l-82 123h53z" />
    <glyph glyph-name="scaron" unicode="&#x161;" horiz-adv-x="338" 
d="M230 126v9c0 111 -198 72 -198 252v2c0 96 50 140 138 140s137 -45 137 -149v-25h-71v32c0 51 -16 80 -64 80s-64 -27 -64 -75v-5c0 -111 198 -76 198 -254v-2c0 -98 -50 -142 -137 -142c-89 0 -137 45 -137 149v33h70v-40c0 -51 17 -80 64 -80c48 0 64 27 64 75z
M168 623l59 70h54l-83 -123h-60l-82 123h53z" />
    <glyph glyph-name="uni0162" unicode="&#x162;" horiz-adv-x="300" 
d="M189 -82c0 20 -12 28 -58 27v55h-24v626h-107v74h299v-74h-107v-626h-30v-35c55 0 85 -9 85 -49c0 -36 -39 -51 -98 -51c-54 0 -92 12 -88 59h47c-2 -25 10 -34 41 -34c30 0 40 10 40 28z" />
    <glyph glyph-name="uni0163" unicode="&#x163;" horiz-adv-x="228" 
d="M167 -82c0 20 -12 28 -58 27v57c-32 12 -46 42 -46 95v355h-45v66h45v111h75v-111h79v-66h-79v-347c0 -33 12 -45 39 -45c19 0 29 1 40 4v-64c-16 -4 -38 -6 -57 -6c-7 0 -14 1 -20 1v-30c55 0 85 -9 85 -49c0 -36 -39 -51 -98 -51c-54 0 -92 12 -88 59h47
c-2 -25 10 -34 41 -34c30 0 40 10 40 28z" />
    <glyph glyph-name="Tcaron" unicode="&#x164;" horiz-adv-x="300" 
d="M299 700v-74h-107v-626h-85v626h-107v74h299zM150 790l59 70h54l-83 -123h-60l-82 123h53z" />
    <glyph glyph-name="tcaron" unicode="&#x165;" horiz-adv-x="334" 
d="M251 577v123h71v-123l-73 -98l-8 4l45 94h-35zM160 -6c-68 0 -97 27 -97 103v355h-45v66h45v111h75v-111h79v-66h-79v-347c0 -33 12 -45 39 -45c19 0 29 1 40 4v-64c-16 -4 -38 -6 -57 -6z" />
    <glyph glyph-name="Tbar" unicode="&#x166;" horiz-adv-x="300" 
d="M299 700v-74h-107v-98h69v-64h-69v-464h-85v464h-68v64h68v98h-107v74h299z" />
    <glyph glyph-name="tbar" unicode="&#x167;" horiz-adv-x="228" 
d="M160 -6c-68 0 -97 27 -97 103v192h-45v58h45v105h-45v66h45v111h75v-111h79v-66h-79v-105h79v-58h-79v-184c0 -33 12 -45 39 -45c19 0 29 1 40 4v-64c-16 -4 -38 -6 -57 -6z" />
    <glyph glyph-name="Utilde" unicode="&#x168;" horiz-adv-x="396" 
d="M129 144c0 -54 22 -80 73 -80c50 0 72 26 72 80v556h79v-549c0 -113 -56 -162 -154 -162s-155 49 -155 162v549h85v-556zM275 839h41c-2 -62 -29 -88 -70 -88c-43 0 -67 32 -98 32c-20 0 -25 -17 -27 -35h-40c1 62 28 88 69 88c42 0 67 -33 98 -33c20 0 25 18 27 36z" />
    <glyph glyph-name="utilde" unicode="&#x169;" horiz-adv-x="375" 
d="M252 142v144v232h76v-349c0 -90 1 -124 10 -169h-73c-6 16 -9 38 -10 63c-16 -42 -54 -74 -105 -74c-62 0 -108 32 -108 140v389h76v-385c0 -61 21 -78 60 -78c42 0 74 40 74 87zM264 672h41c-2 -62 -29 -88 -70 -88c-43 0 -67 32 -98 32c-20 0 -25 -17 -27 -35h-40
c1 62 28 88 69 88c42 0 67 -33 98 -33c20 0 25 18 27 36z" />
    <glyph glyph-name="Umacron" unicode="&#x16a;" horiz-adv-x="396" 
d="M129 144c0 -54 22 -80 73 -80c50 0 72 26 72 80v556h79v-549c0 -113 -56 -162 -154 -162s-155 49 -155 162v549h85v-556zM309 761h-222v52h222v-52z" />
    <glyph glyph-name="umacron" unicode="&#x16b;" horiz-adv-x="375" 
d="M252 142v144v232h76v-349c0 -90 1 -124 10 -169h-73c-6 16 -9 38 -10 63c-16 -42 -54 -74 -105 -74c-62 0 -108 32 -108 140v389h76v-385c0 -61 21 -78 60 -78c42 0 74 40 74 87zM298 594h-222v52h222v-52z" />
    <glyph glyph-name="Ubreve" unicode="&#x16c;" horiz-adv-x="396" 
d="M129 144c0 -54 22 -80 73 -80c50 0 72 26 72 80v556h79v-549c0 -113 -56 -162 -154 -162s-155 49 -155 162v549h85v-556zM198 797c42 0 66 19 66 63h43c0 -62 -31 -112 -109 -112c-77 0 -109 50 -109 112h44c0 -44 24 -63 65 -63z" />
    <glyph glyph-name="ubreve" unicode="&#x16d;" horiz-adv-x="375" 
d="M252 142v144v232h76v-349c0 -90 1 -124 10 -169h-73c-6 16 -9 38 -10 63c-16 -42 -54 -74 -105 -74c-62 0 -108 32 -108 140v389h76v-385c0 -61 21 -78 60 -78c42 0 74 40 74 87zM187 630c42 0 66 19 66 63h43c0 -62 -31 -112 -109 -112c-77 0 -109 50 -109 112h44
c0 -44 24 -63 65 -63z" />
    <glyph glyph-name="Uring" unicode="&#x16e;" horiz-adv-x="396" 
d="M129 144c0 -54 22 -80 73 -80c50 0 72 26 72 80v556h79v-549c0 -113 -56 -162 -154 -162s-155 49 -155 162v549h85v-556zM124 811c0 42 34 74 74 74c41 0 75 -32 75 -74c0 -43 -34 -75 -75 -75c-40 0 -74 32 -74 75zM162 811c0 -22 15 -37 36 -37c22 0 36 15 36 37
c0 21 -14 37 -36 37c-21 0 -36 -16 -36 -37z" />
    <glyph glyph-name="uring" unicode="&#x16f;" horiz-adv-x="375" 
d="M252 142v144v232h76v-349c0 -90 1 -124 10 -169h-73c-6 16 -9 38 -10 63c-16 -42 -54 -74 -105 -74c-62 0 -108 32 -108 140v389h76v-385c0 -61 21 -78 60 -78c42 0 74 40 74 87zM113 644c0 42 34 74 74 74c41 0 75 -32 75 -74c0 -43 -34 -75 -75 -75
c-40 0 -74 32 -74 75zM151 644c0 -22 15 -37 36 -37c22 0 36 15 36 37c0 21 -14 37 -36 37c-21 0 -36 -16 -36 -37z" />
    <glyph glyph-name="Uhungarumlaut" unicode="&#x170;" horiz-adv-x="396" 
d="M129 144c0 -54 22 -80 73 -80c50 0 72 26 72 80v556h79v-549c0 -113 -56 -162 -154 -162s-155 49 -155 162v549h85v-556zM216 737l59 123h71l-84 -123h-46zM96 737l59 123h71l-84 -123h-46z" />
    <glyph glyph-name="uhungarumlaut" unicode="&#x171;" horiz-adv-x="375" 
d="M252 142v144v232h76v-349c0 -90 1 -124 10 -169h-73c-6 16 -9 38 -10 63c-16 -42 -54 -74 -105 -74c-62 0 -108 32 -108 140v389h76v-385c0 -61 21 -78 60 -78c42 0 74 40 74 87zM205 570l59 123h71l-84 -123h-46zM85 570l59 123h71l-84 -123h-46z" />
    <glyph glyph-name="Uogonek" unicode="&#x172;" horiz-adv-x="396" 
d="M341 -91v-33c-19 -7 -40 -11 -66 -11c-49 0 -89 14 -89 59c0 36 23 56 42 67c-9 -1 -19 -2 -29 -2c-98 0 -155 49 -155 162v549h85v-556c0 -54 22 -80 73 -80c50 0 72 26 72 80v556h79v-549c0 -78 -26 -125 -74 -147c-24 -18 -35 -39 -35 -63c0 -29 17 -40 52 -40
c13 0 28 2 45 8z" />
    <glyph glyph-name="uogonek" unicode="&#x173;" horiz-adv-x="375" 
d="M338 -91v-33c-19 -7 -40 -11 -66 -11c-45 0 -84 14 -85 56c0 47 48 70 78 79c-6 16 -9 38 -10 63c-16 -42 -54 -74 -105 -74c-62 0 -108 32 -108 140v389h76v-385c0 -61 21 -78 60 -78c42 0 74 40 74 87v376h76v-349c0 -90 1 -124 10 -169h-23c-47 -17 -69 -37 -69 -65
c0 -25 17 -34 47 -34c13 0 28 2 45 8z" />
    <glyph glyph-name="Wcircumflex" unicode="&#x174;" horiz-adv-x="575" 
d="M347 737l-59 70l-59 -70h-53l82 123h60l83 -123h-54zM462 0h-102l-50 341c-9 61 -18 135 -23 204c-6 -69 -13 -143 -22 -204l-49 -341h-100l-104 700h85l51 -340c11 -72 20 -148 26 -226c5 78 14 154 25 227l51 339h86l51 -340c11 -72 19 -148 25 -226
c6 78 14 154 25 227l51 339h78z" />
    <glyph glyph-name="wcircumflex" unicode="&#x175;" horiz-adv-x="531" 
d="M310 518l51 -282c11 -58 16 -107 20 -150c5 43 11 92 21 150l51 282h72l-101 -518h-89l-51 266c-8 44 -14 101 -19 145c-4 -43 -11 -101 -19 -145l-49 -266h-90l-100 518h78l52 -282c11 -58 15 -107 20 -150c4 43 9 92 20 150l51 282h82zM324 570l-59 70l-59 -70h-53
l82 123h60l83 -123h-54z" />
    <glyph glyph-name="Ycircumflex" unicode="&#x176;" horiz-adv-x="374" 
d="M227 481l58 219h79l-133 -461v-239h-85v232l-134 468h87l59 -219c14 -51 25 -98 35 -152c8 54 21 101 34 152zM246 737l-59 70l-59 -70h-53l82 123h60l83 -123h-54z" />
    <glyph glyph-name="ycircumflex" unicode="&#x177;" horiz-adv-x="337" 
d="M84 518l62 -281c12 -55 21 -114 26 -160c6 46 15 105 27 160l61 281h71l-125 -558c-13 -60 -37 -95 -114 -95c-19 0 -38 2 -49 5v61c12 -4 24 -5 36 -5c28 0 40 10 47 39c2 11 0 26 -3 41l-116 512h77zM231 570l-59 70l-59 -70h-53l82 123h60l83 -123h-54z" />
    <glyph glyph-name="Ydieresis" unicode="&#x178;" horiz-adv-x="374" 
d="M227 481l58 219h79l-133 -461v-239h-85v232l-134 468h87l59 -219c14 -51 25 -98 35 -152c8 54 21 101 34 152zM156 750h-71v89h71v-89zM290 750h-72v89h72v-89z" />
    <glyph glyph-name="Zacute" unicode="&#x179;" horiz-adv-x="319" 
d="M25 626v74h274v-57l-186 -569h186v-74h-279v56l186 570h-181zM115 737l65 123h79l-93 -123h-51z" />
    <glyph glyph-name="zacute" unicode="&#x17a;" horiz-adv-x="303" 
d="M27 452v66h258v-57l-185 -395h185v-66h-267v57l184 395h-175zM112 570l65 123h79l-93 -123h-51z" />
    <glyph glyph-name="Zdotaccent" unicode="&#x17b;" horiz-adv-x="319" 
d="M25 626v74h274v-57l-186 -569h186v-74h-279v56l186 570h-181zM195 750h-71v89h71v-89z" />
    <glyph glyph-name="zdotaccent" unicode="&#x17c;" horiz-adv-x="303" 
d="M27 452v66h258v-57l-185 -395h185v-66h-267v57l184 395h-175zM187 583h-71v89h71v-89z" />
    <glyph glyph-name="Zcaron" unicode="&#x17d;" horiz-adv-x="319" 
d="M25 626v74h274v-57l-186 -569h186v-74h-279v56l186 570h-181zM159 790l59 70h54l-83 -123h-60l-82 123h53z" />
    <glyph glyph-name="zcaron" unicode="&#x17e;" horiz-adv-x="303" 
d="M27 452v66h258v-57l-185 -395h185v-66h-267v57l184 395h-175zM151 623l59 70h54l-83 -123h-60l-82 123h53z" />
    <glyph glyph-name="florin" unicode="&#x192;" 
d="M73 326l5 66h45l18 201c8 84 45 118 122 118c24 0 47 -5 63 -11l-6 -62c-13 6 -25 9 -46 9c-37 0 -54 -17 -58 -65l-17 -190h100l-5 -66h-101l-40 -452h-75l39 452h-44z" />
    <glyph glyph-name="AEacute" unicode="&#x1fc;" horiz-adv-x="493" 
d="M217 0v113h-107l-29 -113h-77l180 700h279v-74h-161v-224h143v-74h-143v-254h166v-74h-251zM168 344l-40 -160h89v195c0 101 3 142 7 217c-16 -78 -36 -172 -56 -252zM196 737l65 123h79l-93 -123h-51z" />
    <glyph glyph-name="aeacute" unicode="&#x1fd;" horiz-adv-x="553" 
d="M165 54c42 0 74 40 74 88v135c-54 -36 -134 -50 -134 -140v-9c0 -59 21 -74 60 -74zM519 238h-204v-104c0 -52 19 -79 67 -79s67 27 67 79v42h70v-33c0 -107 -50 -154 -140 -154c-69 0 -115 28 -133 90c-11 -49 -51 -90 -109 -90c-61 0 -108 29 -108 133v9
c0 185 210 154 210 247v6c0 51 -17 79 -64 79c-48 0 -63 -27 -63 -79v-36h-71v27c0 107 44 154 130 154c51 0 86 -17 107 -53c21 36 59 53 109 53c87 0 132 -47 132 -154v-137zM315 385v-83h134v83c0 51 -19 78 -67 78s-67 -27 -67 -78zM227 570l65 123h79l-93 -123h-51z
" />
    <glyph glyph-name="Oslashacute" unicode="&#x1fe;" horiz-adv-x="388" 
d="M37 159v382c0 119 57 170 157 170c31 0 58 -5 80 -16l14 43l58 -19l-22 -67c17 -27 27 -64 27 -111v-382c0 -119 -58 -170 -157 -170c-31 0 -58 5 -81 15l-13 -42l-57 19l21 66c-18 27 -27 63 -27 112zM122 552v-332l126 395c-12 14 -30 21 -54 21c-51 0 -72 -28 -72 -84
zM194 64c50 0 72 28 72 84v330l-127 -394c12 -14 30 -20 55 -20zM144 737l65 123h79l-93 -123h-51z" />
    <glyph glyph-name="oslashacute" unicode="&#x1ff;" 
d="M322 143c0 -107 -52 -154 -142 -154c-29 0 -55 5 -75 15l-18 -45l-51 22l25 61c-16 25 -24 58 -24 101v232c0 107 52 154 143 154c28 0 53 -5 73 -15l19 45l50 -22l-25 -61c16 -24 25 -58 25 -101v-232zM180 55c47 0 66 27 66 79v221l-114 -284c11 -11 26 -16 48 -16z
M113 384v-219l113 283c-10 10 -26 15 -46 15c-48 0 -67 -27 -67 -79zM130 570l65 123h79l-93 -123h-51z" />
    <glyph glyph-name="uni0218" unicode="&#x218;" horiz-adv-x="364" 
d="M111 243v-95c0 -56 18 -84 68 -84c51 0 68 28 68 84v14c0 176 -216 150 -216 385v2c0 111 52 162 151 162c97 0 150 -51 150 -170v-65h-79v76c0 56 -18 84 -69 84c-50 0 -68 -28 -68 -84v-6c0 -177 216 -152 216 -386v-9c0 -111 -51 -162 -150 -162
c-98 0 -151 52 -151 170v84h80zM145 -141v89h71v-89l-70 -96l-9 5l44 91h-36z" />
    <glyph glyph-name="uni0219" unicode="&#x219;" horiz-adv-x="338" 
d="M230 126v9c0 111 -198 72 -198 252v2c0 96 50 140 138 140s137 -45 137 -149v-25h-71v32c0 51 -16 80 -64 80s-64 -27 -64 -75v-5c0 -111 198 -76 198 -254v-2c0 -98 -50 -142 -137 -142c-89 0 -137 45 -137 149v33h70v-40c0 -51 17 -80 64 -80c48 0 64 27 64 75z
M133 -141v89h71v-89l-70 -96l-9 5l44 91h-36z" />
    <glyph glyph-name="uni021A" unicode="&#x21a;" horiz-adv-x="300" 
d="M299 700v-74h-107v-626h-85v626h-107v74h299zM114 -141v89h71v-89l-70 -96l-9 5l44 91h-36z" />
    <glyph glyph-name="uni021B" unicode="&#x21b;" horiz-adv-x="228" 
d="M84 -141v89h71v-89l-70 -96l-9 5l44 91h-36zM160 -6c-68 0 -97 27 -97 103v355h-45v66h45v111h75v-111h79v-66h-79v-347c0 -33 12 -45 39 -45c19 0 29 1 40 4v-64c-16 -4 -38 -6 -57 -6z" />
    <glyph glyph-name="uni0237" unicode="&#x237;" horiz-adv-x="170" 
d="M29 -135c-18 0 -32 3 -42 7v60c7 -3 16 -5 26 -5c26 0 34 13 34 44v547h76v-550c0 -73 -28 -103 -94 -103z" />
    <glyph glyph-name="circumflex" unicode="&#x2c6;" horiz-adv-x="278" 
d="M198 570l-59 70l-59 -70h-53l82 123h60l83 -123h-54z" />
    <glyph glyph-name="caron" unicode="&#x2c7;" horiz-adv-x="278" 
d="M139 623l59 70h54l-83 -123h-60l-82 123h53z" />
    <glyph glyph-name="breve" unicode="&#x2d8;" horiz-adv-x="278" 
d="M139 630c42 0 66 19 66 63h43c0 -62 -31 -112 -109 -112c-77 0 -109 50 -109 112h44c0 -44 24 -63 65 -63z" />
    <glyph glyph-name="dotaccent" unicode="&#x2d9;" horiz-adv-x="278" 
d="M175 583h-71v89h71v-89z" />
    <glyph glyph-name="ring" unicode="&#x2da;" horiz-adv-x="278" 
d="M65 644c0 42 34 74 74 74c41 0 75 -32 75 -74c0 -43 -34 -75 -75 -75c-40 0 -74 32 -74 75zM103 644c0 -22 15 -37 36 -37c22 0 36 15 36 37c0 21 -14 37 -36 37c-21 0 -36 -16 -36 -37z" />
    <glyph glyph-name="ogonek" unicode="&#x2db;" horiz-adv-x="278" 
d="M215 -91v-33c-20 -7 -39 -11 -65 -11c-48 0 -86 13 -86 55c0 44 39 68 88 80h50c-54 -17 -79 -37 -79 -65c0 -25 15 -34 48 -34c13 0 27 2 44 8z" />
    <glyph glyph-name="tilde" unicode="&#x2dc;" horiz-adv-x="278" 
d="M216 672h41c-2 -62 -29 -88 -70 -88c-43 0 -67 32 -98 32c-20 0 -25 -17 -27 -35h-40c1 62 28 88 69 88c42 0 67 -33 98 -33c20 0 25 18 27 36z" />
    <glyph glyph-name="hungarumlaut" unicode="&#x2dd;" horiz-adv-x="278" 
d="M134 570l59 123h71l-84 -123h-46zM14 570l59 123h71l-84 -123h-46z" />
    <glyph glyph-name="commaaccent" horiz-adv-x="278" 
d="M109 -141v89h71v-89l-70 -96l-9 5l44 91h-36z" />
    <glyph glyph-name="pi" unicode="&#x3c0;" horiz-adv-x="380" 
d="M123 452v-452h-76v518h286v-518h-76v452h-134z" />
    <glyph glyph-name="uni1E02" unicode="&#x1e02;" horiz-adv-x="394" 
d="M51 700h147c84 0 158 -20 158 -154v-52c0 -81 -27 -116 -71 -132c44 -15 75 -51 75 -131v-75c0 -135 -78 -156 -162 -156h-147v700zM190 329h-54v-255h54c64 0 85 21 85 85v87c0 63 -21 83 -85 83zM136 402h54c64 0 85 20 85 83v58c0 63 -21 83 -85 83h-54v-224zM227 750
h-71v89h71v-89z" />
    <glyph glyph-name="uni1E03" unicode="&#x1e03;" horiz-adv-x="370" 
d="M123 376v-234c0 -47 32 -87 74 -87c39 0 60 17 60 78v252c0 61 -21 78 -60 78c-42 0 -74 -40 -74 -87zM47 700h76v-239c17 39 53 68 102 68c62 0 108 -32 108 -140v-260c0 -108 -46 -140 -108 -140c-53 0 -91 34 -106 77l-16 -66h-56v700zM122 750h-71v89h71v-89z" />
    <glyph glyph-name="uni1E0A" unicode="&#x1e0a;" horiz-adv-x="402" 
d="M51 0v700h140c83 0 167 -29 167 -163v-374c0 -134 -84 -163 -167 -163h-140zM185 626h-49v-552h49c64 0 88 24 88 87v378c0 63 -24 87 -88 87zM227 750h-71v89h71v-89z" />
    <glyph glyph-name="uni1E0B" unicode="&#x1e0b;" horiz-adv-x="370" 
d="M247 142v234c0 47 -32 87 -74 87c-39 0 -60 -17 -60 -78v-252c0 -61 21 -78 60 -78c42 0 74 40 74 87zM260 0c-6 16 -9 38 -10 63c-16 -42 -54 -74 -105 -74c-62 0 -108 32 -108 140v260c0 108 46 140 108 140c48 0 85 -29 102 -68v239h76v-531c0 -90 1 -124 10 -169h-73
zM321 750h-71v89h71v-89z" />
    <glyph glyph-name="uni1E1E" unicode="&#x1e1e;" horiz-adv-x="301" 
d="M136 315v-315h-85v700h240v-74h-155v-236h138v-75h-138zM207 750h-71v89h71v-89z" />
    <glyph glyph-name="uni1E1F" unicode="&#x1e1f;" horiz-adv-x="233" 
d="M138 582v-64h101v-66h-101v-452h-75v452h-45v66h45v75c0 82 35 118 113 118c23 0 46 -4 63 -11v-62c-14 6 -28 9 -49 9c-36 0 -52 -16 -52 -65zM190 750h-71v89h71v-89z" />
    <glyph glyph-name="uni1E40" unicode="&#x1e40;" horiz-adv-x="553" 
d="M275 150c6 64 20 134 33 195l74 355h120v-700h-83v393c0 66 3 139 6 205c-10 -66 -23 -137 -36 -204l-84 -394h-70l-84 394c-13 67 -26 138 -36 204c4 -66 6 -139 6 -205v-393h-72v700h119l75 -355c12 -61 26 -131 32 -195zM312 750h-71v89h71v-89z" />
    <glyph glyph-name="uni1E41" unicode="&#x1e41;" horiz-adv-x="566" 
d="M123 0h-76v518h71v-67c13 43 49 78 103 78c46 0 81 -19 95 -76c15 43 52 76 105 76c62 0 103 -32 103 -140v-389h-76v385c0 61 -16 78 -55 78c-42 0 -70 -40 -70 -87v-376h-75v385c0 61 -16 78 -55 78c-42 0 -70 -40 -70 -87v-376zM319 583h-71v89h71v-89z" />
    <glyph glyph-name="uni1E56" unicode="&#x1e56;" horiz-adv-x="373" 
d="M136 251v-251h-85v700h137c83 0 168 -29 168 -163v-123c0 -135 -85 -163 -168 -163h-52zM182 626h-46v-301h46c64 0 89 23 89 86v128c0 63 -25 87 -89 87zM223 750h-71v89h71v-89z" />
    <glyph glyph-name="uni1E57" unicode="&#x1e57;" horiz-adv-x="370" 
d="M123 376v-234c0 -47 32 -87 74 -87c39 0 60 17 60 78v252c0 61 -21 78 -60 78c-42 0 -74 -40 -74 -87zM123 -126h-76v644h71v-69c14 44 53 80 107 80c62 0 108 -32 108 -140v-260c0 -108 -46 -140 -108 -140c-49 0 -85 29 -102 67v-182zM221 583h-71v89h71v-89z" />
    <glyph glyph-name="uni1E60" unicode="&#x1e60;" horiz-adv-x="364" 
d="M111 243v-95c0 -56 18 -84 68 -84c51 0 68 28 68 84v14c0 176 -216 150 -216 385v2c0 111 52 162 151 162c97 0 150 -51 150 -170v-65h-79v76c0 56 -18 84 -69 84c-50 0 -68 -28 -68 -84v-6c0 -177 216 -152 216 -386v-9c0 -111 -51 -162 -150 -162
c-98 0 -151 52 -151 170v84h80zM217 750h-71v89h71v-89z" />
    <glyph glyph-name="uni1E61" unicode="&#x1e61;" horiz-adv-x="338" 
d="M230 126v9c0 111 -198 72 -198 252v2c0 96 50 140 138 140s137 -45 137 -149v-25h-71v32c0 51 -16 80 -64 80s-64 -27 -64 -75v-5c0 -111 198 -76 198 -254v-2c0 -98 -50 -142 -137 -142c-89 0 -137 45 -137 149v33h70v-40c0 -51 17 -80 64 -80c48 0 64 27 64 75z
M205 583h-71v89h71v-89z" />
    <glyph glyph-name="uni1E6A" unicode="&#x1e6a;" horiz-adv-x="300" 
d="M299 700v-74h-107v-626h-85v626h-107v74h299zM186 750h-71v89h71v-89z" />
    <glyph glyph-name="uni1E6B" unicode="&#x1e6b;" horiz-adv-x="228" 
d="M160 -6c-68 0 -97 27 -97 103v355h-45v66h45v111h75v-111h79v-66h-79v-347c0 -33 12 -45 39 -45c19 0 29 1 40 4v-64c-16 -4 -38 -6 -57 -6zM137 679h-71v89h71v-89z" />
    <glyph glyph-name="Wgrave" unicode="&#x1e80;" horiz-adv-x="575" 
d="M462 0h-102l-50 341c-9 61 -18 135 -23 204c-6 -69 -13 -143 -22 -204l-49 -341h-100l-104 700h85l51 -340c11 -72 20 -148 26 -226c5 78 14 154 25 227l51 339h86l51 -340c11 -72 19 -148 25 -226c6 78 14 154 25 227l51 339h78zM271 860l66 -123h-51l-93 123h78z" />
    <glyph glyph-name="wgrave" unicode="&#x1e81;" horiz-adv-x="531" 
d="M310 518l51 -282c11 -58 16 -107 20 -150c5 43 11 92 21 150l51 282h72l-101 -518h-89l-51 266c-8 44 -14 101 -19 145c-4 -43 -11 -101 -19 -145l-49 -266h-90l-100 518h78l52 -282c11 -58 15 -107 20 -150c4 43 9 92 20 150l51 282h82zM249 693l66 -123h-51l-93 123h78
z" />
    <glyph glyph-name="Wacute" unicode="&#x1e82;" horiz-adv-x="575" 
d="M462 0h-102l-50 341c-9 61 -18 135 -23 204c-6 -69 -13 -143 -22 -204l-49 -341h-100l-104 700h85l51 -340c11 -72 20 -148 26 -226c5 78 14 154 25 227l51 339h86l51 -340c11 -72 19 -148 25 -226c6 78 14 154 25 227l51 339h78zM238 737l65 123h79l-93 -123h-51z" />
    <glyph glyph-name="wacute" unicode="&#x1e83;" horiz-adv-x="531" 
d="M310 518l51 -282c11 -58 16 -107 20 -150c5 43 11 92 21 150l51 282h72l-101 -518h-89l-51 266c-8 44 -14 101 -19 145c-4 -43 -11 -101 -19 -145l-49 -266h-90l-100 518h78l52 -282c11 -58 15 -107 20 -150c4 43 9 92 20 150l51 282h82zM213 570l65 123h79l-93 -123h-51
z" />
    <glyph glyph-name="Wdieresis" unicode="&#x1e84;" horiz-adv-x="575" 
d="M462 0h-102l-50 341c-9 61 -18 135 -23 204c-6 -69 -13 -143 -22 -204l-49 -341h-100l-104 700h85l51 -340c11 -72 20 -148 26 -226c5 78 14 154 25 227l51 339h86l51 -340c11 -72 19 -148 25 -226c6 78 14 154 25 227l51 339h78zM257 750h-71v89h71v-89zM391 750h-72v89
h72v-89z" />
    <glyph glyph-name="wdieresis" unicode="&#x1e85;" horiz-adv-x="531" 
d="M310 518l51 -282c11 -58 16 -107 20 -150c5 43 11 92 21 150l51 282h72l-101 -518h-89l-51 266c-8 44 -14 101 -19 145c-4 -43 -11 -101 -19 -145l-49 -266h-90l-100 518h78l52 -282c11 -58 15 -107 20 -150c4 43 9 92 20 150l51 282h82zM234 583h-71v89h71v-89zM368 583
h-72v89h72v-89z" />
    <glyph glyph-name="Ygrave" unicode="&#x1ef2;" horiz-adv-x="374" 
d="M227 481l58 219h79l-133 -461v-239h-85v232l-134 468h87l59 -219c14 -51 25 -98 35 -152c8 54 21 101 34 152zM170 860l66 -123h-51l-93 123h78z" />
    <glyph glyph-name="ygrave" unicode="&#x1ef3;" horiz-adv-x="337" 
d="M84 518l62 -281c12 -55 21 -114 26 -160c6 46 15 105 27 160l61 281h71l-125 -558c-13 -60 -37 -95 -114 -95c-19 0 -38 2 -49 5v61c12 -4 24 -5 36 -5c28 0 40 10 47 39c2 11 0 26 -3 41l-116 512h77zM156 693l66 -123h-51l-93 123h78z" />
    <glyph glyph-name="figuredash" unicode="&#x2012;" 
d="M359 293v-68h-359v68h359z" />
    <glyph glyph-name="endash" unicode="&#x2013;" horiz-adv-x="500" 
d="M500 293v-68h-500v68h500z" />
    <glyph glyph-name="emdash" unicode="&#x2014;" horiz-adv-x="1000" 
d="M1000 293v-68h-1000v68h1000z" />
    <glyph glyph-name="quoteleft" unicode="&#x2018;" horiz-adv-x="180" 
d="M128 598v-129h-75v129l77 102l8 -6l-48 -96h38z" />
    <glyph glyph-name="quoteright" unicode="&#x2019;" horiz-adv-x="180" 
d="M52 571v129h75v-129l-77 -102l-8 6l48 96h-38z" />
    <glyph glyph-name="quotesinglbase" unicode="&#x201a;" horiz-adv-x="180" 
d="M52 0v129h75v-129l-77 -102l-8 6l48 96h-38z" />
    <glyph glyph-name="quotedblleft" unicode="&#x201c;" horiz-adv-x="331" 
d="M279 598v-129h-75v129l77 102l8 -6l-48 -96h38zM127 598v-129h-75v129l77 102l8 -6l-48 -96h38z" />
    <glyph glyph-name="quotedblright" unicode="&#x201d;" horiz-adv-x="331" 
d="M203 571v129h75v-129l-77 -102l-8 6l48 96h-38zM52 571v129h75v-129l-77 -102l-8 6l48 96h-38z" />
    <glyph glyph-name="quotedblbase" unicode="&#x201e;" horiz-adv-x="331" 
d="M203 0v129h75v-129l-77 -102l-8 6l48 96h-38zM52 0v129h75v-129l-77 -102l-8 6l48 96h-38z" />
    <glyph glyph-name="dagger" unicode="&#x2020;" horiz-adv-x="388" 
d="M232 452v-517h-76v517h-138v66h138v182h76v-182h138v-66h-138z" />
    <glyph glyph-name="daggerdbl" unicode="&#x2021;" horiz-adv-x="388" 
d="M232 118v-183h-76v183h-138v65h138v269h-138v66h138v182h76v-182h138v-66h-138v-269h138v-65h-138z" />
    <glyph glyph-name="bullet" unicode="&#x2022;" horiz-adv-x="324" 
d="M44 350c0 65 52 118 117 118s118 -53 118 -118s-53 -117 -118 -117s-117 52 -117 117z" />
    <glyph glyph-name="ellipsis" unicode="&#x2026;" horiz-adv-x="482" 
d="M52 0v129h75v-129h-75zM203 0v129h75v-129h-75zM355 0v129h75v-129h-75z" />
    <glyph glyph-name="perthousand" unicode="&#x2030;" horiz-adv-x="886" 
d="M139 0l285 700h57l-285 -700h-57zM235 603v-254c0 -77 -40 -108 -102 -108s-103 31 -103 108v254c0 77 41 108 103 108s102 -31 102 -108zM174 345v262c0 33 -12 50 -41 50c-30 0 -42 -17 -42 -50v-262c0 -33 12 -51 42 -51c29 0 41 18 41 51zM590 351v-254
c0 -77 -40 -108 -102 -108s-103 31 -103 108v254c0 77 41 108 103 108s102 -31 102 -108zM529 93v262c0 33 -12 50 -41 50c-30 0 -42 -17 -42 -50v-262c0 -33 12 -51 42 -51c29 0 41 18 41 51zM855 351v-254c0 -77 -40 -108 -102 -108s-103 31 -103 108v254
c0 77 41 108 103 108s102 -31 102 -108zM794 93v262c0 33 -12 50 -41 50c-30 0 -42 -17 -42 -50v-262c0 -33 12 -51 42 -51c29 0 41 18 41 51z" />
    <glyph glyph-name="guilsinglleft" unicode="&#x2039;" horiz-adv-x="221" 
d="M12 259l122 259h75l-122 -259l122 -259h-75z" />
    <glyph glyph-name="guilsinglright" unicode="&#x203a;" horiz-adv-x="221" 
d="M87 518l122 -259l-122 -259h-75l122 259l-122 259h75z" />
    <glyph glyph-name="fraction" unicode="&#x2044;" 
d="M8 0l285 700h57l-285 -700h-57z" />
    <glyph glyph-name="zerosuperior" unicode="&#x2070;" horiz-adv-x="265" 
d="M235 693v-254c0 -77 -40 -108 -102 -108s-103 31 -103 108v254c0 77 41 108 103 108s102 -31 102 -108zM174 435v262c0 33 -12 50 -41 50c-30 0 -42 -17 -42 -50v-262c0 -33 12 -51 42 -51c29 0 41 18 41 51z" />
    <glyph glyph-name="foursuperior" unicode="&#x2074;" horiz-adv-x="265" 
d="M217 790v-296h27v-54h-27v-98h-60v98h-131v46l119 304h72zM118 585l-35 -91h74v79c0 60 6 124 10 157c-9 -32 -29 -93 -49 -145z" />
    <glyph glyph-name="zeroinferior" unicode="&#x2080;" horiz-adv-x="265" 
d="M235 281v-254c0 -77 -40 -108 -102 -108s-103 31 -103 108v254c0 77 41 108 103 108s102 -31 102 -108zM174 23v262c0 33 -12 50 -41 50c-30 0 -42 -17 -42 -50v-262c0 -33 12 -51 42 -51c29 0 41 18 41 51z" />
    <glyph glyph-name="oneinferior" unicode="&#x2081;" horiz-adv-x="265" 
d="M80 343h28c30 0 41 13 45 35h32v-448h-60v357h-45v56z" />
    <glyph glyph-name="twoinferior" unicode="&#x2082;" horiz-adv-x="265" 
d="M92 283v-52h-56v50c0 77 36 108 98 108c61 0 99 -31 99 -106v-8c0 -147 -133 -163 -137 -288h134v-57h-194v49c0 149 137 170 137 296v8c0 35 -11 52 -41 52c-29 0 -40 -17 -40 -52z" />
    <glyph glyph-name="threeinferior" unicode="&#x2083;" horiz-adv-x="265" 
d="M97 136v53h34c31 0 41 13 41 47v47c0 35 -12 53 -41 53c-30 0 -42 -18 -42 -53v-35h-56v34c0 77 38 107 99 107c62 0 100 -30 100 -107v-34c0 -54 -21 -77 -50 -86c29 -10 50 -35 50 -88v-48c0 -76 -38 -107 -100 -107c-61 0 -99 31 -99 107v41h56v-41
c0 -36 12 -53 42 -53c29 0 41 17 41 53v60c0 35 -10 50 -41 50h-34z" />
    <glyph glyph-name="fourinferior" unicode="&#x2084;" horiz-adv-x="265" 
d="M217 378v-296h27v-54h-27v-98h-60v98h-131v46l119 304h72zM118 173l-35 -91h74v79c0 60 6 124 10 157c-9 -32 -29 -93 -49 -145z" />
    <glyph glyph-name="Euro" unicode="&#x20ac;" 
d="M0 277v38h36v70h-36v38h37v134c0 107 52 154 143 154c90 0 142 -47 142 -154v-54h-76v63c0 52 -19 79 -66 79c-48 0 -67 -27 -67 -79v-143h209v-38h-209v-70h209v-38h-209v-143c0 -52 19 -79 67 -79c47 0 66 27 66 79v63h76v-54c0 -107 -52 -154 -142 -154
c-91 0 -143 47 -143 154v134h-37z" />
    <glyph glyph-name="numero" unicode="&#x2116;" horiz-adv-x="682" 
d="M304 700h72v-700h-95l-124 425c-12 44 -27 109 -39 159c3 -50 6 -119 6 -161v-423h-73v700h114l106 -366c12 -44 27 -109 40 -158c-3 49 -7 118 -7 160v364zM652 443c0 -77 -35 -110 -102 -110s-102 33 -102 110v158c0 77 35 110 102 110s102 -33 102 -110v-158zM448 219
v62h204v-62h-204zM592 605c0 36 -12 52 -42 52s-42 -16 -42 -52v-166c0 -36 12 -53 42 -53s42 17 42 53v166z" />
    <glyph glyph-name="uni2117" unicode="&#x2117;" horiz-adv-x="618" 
d="M37 350c0 190 40 361 273 361c231 0 271 -171 271 -361s-40 -361 -271 -361c-233 0 -273 171 -273 361zM87 350c0 -167 26 -314 223 -314c196 0 221 147 221 314s-25 314 -221 314c-197 0 -223 -147 -223 -314zM220 554h103c52 0 99 -22 99 -97v-73
c0 -75 -47 -97 -99 -97h-45v-159h-58v426zM278 501v-162h42c31 0 43 15 43 44v75c0 29 -12 43 -43 43h-42z" />
    <glyph glyph-name="trademark" unicode="&#x2122;" horiz-adv-x="471" 
d="M385 335v163c0 48 3 99 4 143c-6 -46 -15 -92 -24 -143l-30 -163h-46l-29 163c-9 48 -17 99 -24 143c1 -44 4 -95 4 -143v-163h-46v365h81l25 -138c8 -41 12 -77 16 -121c4 44 9 80 16 121l24 138h82v-365h-53zM0 651v49h161v-49h-53v-316h-55v316h-53z" />
    <glyph glyph-name="uni2126" unicode="&#x2126;" horiz-adv-x="388" 
d="M351 74v-74h-127v77c30 10 42 43 42 91v384c0 56 -22 84 -72 84c-51 0 -72 -28 -72 -84v-387c0 -47 14 -82 50 -90v-75h-135v74h71c-46 26 -71 79 -71 156v311c0 119 57 170 157 170c99 0 157 -51 157 -170v-311c0 -77 -22 -130 -66 -156h66z" />
    <glyph glyph-name="onethird" unicode="&#x2153;" horiz-adv-x="580" 
d="M99 0l285 700h57l-285 -700h-57zM40 665h28c30 0 41 13 45 35h32v-448h-60v357h-45v56zM412 206v53h34c31 0 41 13 41 47v47c0 35 -12 53 -41 53c-30 0 -42 -18 -42 -53v-35h-56v34c0 77 38 107 99 107c62 0 100 -30 100 -107v-34c0 -54 -21 -77 -50 -86
c29 -10 50 -35 50 -88v-48c0 -76 -38 -107 -100 -107c-61 0 -99 31 -99 107v41h56v-41c0 -36 12 -53 42 -53c29 0 41 17 41 53v60c0 35 -10 50 -41 50h-34z" />
    <glyph glyph-name="twothirds" unicode="&#x2154;" horiz-adv-x="620" 
d="M139 0l285 700h57l-285 -700h-57zM92 605v-52h-56v50c0 77 36 108 98 108c61 0 99 -31 99 -106v-8c0 -147 -133 -163 -137 -288h134v-57h-194v49c0 149 137 170 137 296v8c0 35 -11 52 -41 52c-29 0 -40 -17 -40 -52zM452 206v53h34c31 0 41 13 41 47v47
c0 35 -12 53 -41 53c-30 0 -42 -18 -42 -53v-35h-56v34c0 77 38 107 99 107c62 0 100 -30 100 -107v-34c0 -54 -21 -77 -50 -86c29 -10 50 -35 50 -88v-48c0 -76 -38 -107 -100 -107c-61 0 -99 31 -99 107v41h56v-41c0 -36 12 -53 42 -53c29 0 41 17 41 53v60
c0 35 -10 50 -41 50h-34z" />
    <glyph glyph-name="partialdiff" unicode="&#x2202;" 
d="M144 508c48 0 84 -28 102 -66v64c0 79 -21 132 -93 132h-31l13 62h28c112 0 159 -79 159 -195v-362c0 -108 -52 -154 -142 -154c-91 0 -143 47 -143 154v225c0 108 46 140 107 140zM113 364v-230c0 -52 19 -79 67 -79c47 0 66 27 66 79v221c0 48 -32 87 -74 87
c-39 0 -59 -16 -59 -78z" />
    <glyph glyph-name="uni2206" unicode="&#x2206;" 
d="M16 0l125 700h76l126 -700h-327zM146 364l-51 -298h163l-51 298c-11 64 -23 135 -32 226c-8 -91 -18 -162 -29 -226z" />
    <glyph glyph-name="product" unicode="&#x220f;" horiz-adv-x="409" 
d="M277 -126v752h-145v-752h-85v826h315v-826h-85z" />
    <glyph glyph-name="summation" unicode="&#x2211;" horiz-adv-x="325" 
d="M308 -52v-74h-280v69l147 345l-147 343v69h280v-74h-192l142 -338l-142 -340h192z" />
    <glyph glyph-name="minus" unicode="&#x2212;" 
d="M322 382v-65h-285v65h285z" />
    <glyph glyph-name="radical" unicode="&#x221a;" 
d="M20 382h109l12 -66c10 -58 19 -129 27 -217c9 88 19 174 30 233l62 368h78l-121 -700h-94l-55 317h-48v65z" />
    <glyph glyph-name="infinity" unicode="&#x221e;" horiz-adv-x="733" 
d="M345 317c-21 0 -29 25 -38 25c-7 0 -14 -4 -25 -4s-21 14 -21 25c0 12 3 27 8 35c-18 -18 -11 -58 -42 -78c-18 -12 -18 -25 -18 -40c0 -19 22 -27 22 -34c0 -3 -1 -4 -3 -4c-4 0 -9 2 -12 5c8 -41 24 -79 48 -104h-55c-15 49 -35 140 -35 226c0 122 38 238 176 238
c153 0 190 -126 190 -254c0 -78 -15 -156 -25 -210h-73c37 33 56 72 62 117c-1 -2 -9 -8 -13 -8c-1 0 -3 0 -3 2c0 3 18 7 18 37c-3 -4 -13 -6 -15 -6c-4 0 -15 -9 -26 -9c-38 0 -32 7 -110 7c-39 0 -71 -12 -91 -12c-9 0 -17 4 -24 4c-6 0 -28 3 -28 12c0 13 62 27 111 27
c10 0 14 -1 24 -1s21 4 30 4c67 0 118 -8 127 -20c-1 20 -21 42 -44 42c-4 0 -6 3 -6 7c0 36 -3 57 -16 58c3 -5 4 -10 4 -17c0 -22 -15 -46 -38 -46c-7 0 -15 4 -17 4c-6 0 -19 -28 -42 -28zM733 291v-148c-25 55 -107 177 -136 177c4 -59 0 -115 -12 -177h-42
c8 52 16 123 16 199c0 155 -39 319 -213 319c-148 0 -190 -159 -190 -308c0 -85 14 -165 29 -210h-47c-17 60 -19 120 -19 184c-38 -21 -95 -144 -119 -184v148c25 61 92 113 113 136c6 135 77 287 223 287c187 0 238 -135 257 -279c24 -5 102 -65 140 -144zM345 503
c-1 1 -3 4 -3 6c0 1 1 2 2 2c3 0 15 -17 43 -17c36 0 52 17 55 17c2 0 4 -1 4 -2c0 -2 -7 -7 -8 -8c12 0 34 -4 52 -11c-18 49 -56 80 -139 80c-77 0 -126 -53 -142 -118c17 9 38 24 41 39c-3 2 -6 6 -6 7c0 3 2 4 3 4s17 -16 49 -16c16 0 34 7 49 17zM371 416
c0 25 -7 60 -14 60c-18 0 -22 -78 -33 -78c-6 0 -12 6 -21 6c-18 0 -29 -17 -29 -35c0 -7 4 -14 11 -14c19 0 20 13 27 13c6 0 14 -27 32 -27c24 0 30 21 37 21c6 0 14 -7 19 -7c14 0 26 18 26 35c0 12 -7 26 -22 26c-13 0 -17 -13 -26 -13c-6 0 -7 8 -7 13zM510 318
c0 48 -1 99 -12 147l-5 3c0 -31 -32 -43 -59 -43c-28 0 -53 19 -53 42c0 3 0 6 2 9c-5 1 -11 2 -15 4c15 -22 13 -57 20 -57c7 2 11 2 15 2c13 0 23 -5 31 -14c30 0 34 -37 34 -51c0 -8 31 -12 42 -42zM383 310c-2 0 -26 -4 -37 -4c-9 0 -17 3 -24 3c-33 0 -85 -16 -85 -21
c0 -10 14 -10 20 -10c45 0 66 13 98 13c36 0 80 -7 110 -7c10 0 20 7 20 9c0 7 -62 17 -102 17zM267 413c-26 0 -44 17 -46 31c-5 -3 -11 -4 -15 -5c-3 -16 -4 -30 -4 -43c0 -26 0 -50 3 -78c14 21 38 27 42 53c3 23 14 38 38 41c7 3 15 5 23 5c12 0 10 32 34 61l-13 -4
c-1 -30 -26 -61 -62 -61zM419 465c-11 0 -15 8 -16 13c-8 0 -12 -11 -12 -15c0 -15 27 -24 46 -24c17 0 44 12 44 30c0 11 -27 17 -43 17c-2 -9 -7 -21 -19 -21zM267 427c18 0 46 17 46 35c0 3 0 6 -1 9c-15 0 -20 0 -27 1c-3 -9 -11 -14 -18 -14c-5 0 -10 0 -15 5
c-5 -5 -11 -8 -18 -12c3 -16 18 -24 33 -24zM266 288c-1 0 -2 1 -2 3c0 9 83 12 107 12c20 0 93 -2 93 -8c0 -2 -2 -3 -3 -3c-3 0 -24 5 -88 5c-81 0 -101 -9 -107 -9zM305 262c0 9 50 10 63 10c1 0 31 0 31 -8c0 -2 -1 -3 -2 -3c-8 0 -12 4 -20 4c-19 0 -35 -1 -46 -1
c-8 0 -16 -6 -22 -6c-2 0 -4 1 -4 4zM417 473c5 0 9 4 9 13c-5 0 -11 -4 -16 -6c0 -5 3 -7 7 -7zM266 466c4 0 8 3 10 9c-4 1 -7 2 -11 4c0 -2 -2 -6 -6 -10c1 -2 4 -3 7 -3zM325 34l-3 48l-10 -82h-21l15 125h25l4 -60l21 60h26l-15 -125h-22l10 82l-16 -48h-14zM21 125h35
c12 0 22 -7 20 -21l-10 -82c-2 -15 -10 -22 -22 -22h-38zM282 44c-1 -8 -5 -14 -10 -17l8 -27h-21l-7 23h-7l-3 -23h-22l15 125h36c12 0 20 -7 18 -24zM183 0l3 23h-14l-3 -23h-21l12 104c1 14 10 21 22 21h17c12 0 19 -7 18 -21l-12 -104h-22zM594 0l15 125h35
c14 0 22 -7 20 -21l-8 -62c-2 -14 -10 -19 -22 -19h-15l-3 -23h-22zM111 0l3 23h-13l-3 -23h-22l15 125h22l-10 -83h13l10 83h22l-15 -125h-22zM539 125h22l-10 -79c0 -3 0 -4 4 -4h5c3 0 5 1 5 4l9 79h22l-10 -81c-2 -13 -9 -21 -19 -21l-9 -23h-23l9 23
c-11 0 -17 8 -15 21zM477 106l3 19h50l-3 -19h-13l-12 -106h-23l12 106h-14zM41 106l-11 -88h11c2 0 3 2 3 4l9 80c0 3 -1 4 -4 4h-8zM629 106l-8 -64h8c3 0 5 1 5 4l7 56c0 3 -1 4 -4 4h-8zM174 42h14l7 60c0 3 -1 4 -4 4h-5c-4 0 -5 -1 -5 -4zM255 106l-8 -64h8
c3 0 5 1 5 4l7 56c0 2 0 4 -3 4h-9zM711 57l-3 -18h-19l-3 -21h27l-2 -18h-49l15 125h47l-3 -19h-24l-6 -49h20zM417 0l3 23h-14l-3 -23h-21l12 104c1 14 10 21 22 21h17c12 0 19 -7 18 -21l-12 -104h-22zM408 42h14l7 60c0 3 -1 4 -4 4h-5c-4 0 -5 -1 -5 -4z" />
    <glyph glyph-name="integral" unicode="&#x222b;" 
d="M113 -126h-50v66h37c28 0 40 11 40 42v617c0 73 29 101 102 101h54v-66h-41c-28 0 -39 -11 -39 -42v-617c0 -73 -30 -101 -103 -101z" />
    <glyph glyph-name="approxequal" unicode="&#x2248;" 
d="M322 315v-66c-25 -27 -50 -36 -74 -36c-49 0 -97 39 -144 39c-23 0 -45 -9 -67 -35v65c25 27 49 36 73 36c50 0 97 -39 144 -39c23 0 45 9 68 36zM322 483v-66c-25 -27 -50 -36 -74 -36c-49 0 -97 39 -144 39c-23 0 -45 -9 -67 -35v65c25 27 49 36 73 36
c50 0 97 -39 144 -39c23 0 45 9 68 36z" />
    <glyph glyph-name="notequal" unicode="&#x2260;" 
d="M322 299v-66h-174l-50 -95h-61l50 95h-50v66h85l54 102h-139v65h173l50 94h62l-50 -94h50v-65h-85l-54 -102h139z" />
    <glyph glyph-name="lessequal" unicode="&#x2264;" 
d="M110 372l212 -99v-106h-285v65h224l-224 107v63l285 137v-68z" />
    <glyph glyph-name="greaterequal" unicode="&#x2265;" 
d="M37 273l212 99l-212 99v68l285 -137v-63l-224 -107h224v-65h-285v106z" />
    <glyph glyph-name="lozenge" unicode="&#x25ca;" 
d="M214 700l130 -350l-130 -350h-70l-129 350l129 350h70zM214 193l57 157l-57 157c-13 38 -29 84 -35 117c-6 -33 -22 -79 -35 -117l-56 -157l56 -157c14 -40 29 -85 35 -117c6 32 21 78 35 117z" />
    <glyph glyph-name="ampersand.alt" horiz-adv-x="381" 
d="M114 558v-76c0 -60 18 -83 82 -83h176v-67h-38v-185c0 -111 -56 -158 -151 -158s-151 47 -151 158v89c0 76 29 111 71 126c-42 16 -71 50 -71 128v62c0 114 54 159 148 159s148 -45 148 -159v-62h-76v68c0 54 -21 82 -69 82s-69 -28 -69 -82zM252 142v190h-56
c-64 0 -82 -22 -82 -82v-108c0 -54 21 -82 69 -82s69 28 69 82z" />
    <glyph glyph-name="i.trk" horiz-adv-x="170" 
d="M123 0h-76v518h76v-518zM123 606h-76v94h76v-94z" />
    <glyph glyph-name="r.alt" horiz-adv-x="226" 
d="M123 333v-333h-76v518h71v-80c11 53 37 90 92 90h9v-70h-9c-66 0 -87 -45 -87 -125z" />
    <glyph glyph-name="zero.alt" 
d="M322 143c0 -107 -52 -154 -142 -154c-91 0 -143 47 -143 154v414c0 107 52 154 143 154c90 0 142 -47 142 -154v-414zM246 566c0 52 -19 79 -66 79c-48 0 -67 -27 -67 -79v-432c0 -52 19 -79 67 -79c47 0 66 27 66 79v432z" />
    <glyph glyph-name="one.alt" 
d="M81 594v64h85c35 0 47 18 49 42h43v-700h-76v594h-101z" />
    <glyph glyph-name="two.alt" 
d="M115 445h-71v108c0 108 51 158 140 158c90 0 140 -50 140 -158v-13c0 -229 -209 -249 -209 -450v-14h206v-76h-282v83c0 245 210 261 210 454v26c0 51 -19 82 -67 82s-67 -31 -67 -82v-118z" />
    <glyph glyph-name="three.alt" 
d="M39 250h71v-113c0 -51 19 -82 67 -82c47 0 67 31 67 82v113c0 54 -17 83 -67 83h-51v65h51c50 0 67 30 67 83v82c0 51 -20 82 -67 82c-48 0 -67 -31 -67 -82v-82h-71v74c0 107 51 156 140 156c90 0 140 -48 140 -156v-56c0 -81 -25 -119 -71 -134c46 -15 71 -52 71 -133
v-86c0 -107 -50 -157 -140 -157c-89 0 -140 50 -140 157v104z" />
    <glyph glyph-name="four.alt" 
d="M335 220v-74h-45v-146h-76v146h-188v63l179 491h85v-480h45zM167 418l-69 -198h116v182c0 83 4 155 10 208c-13 -53 -31 -117 -57 -192z" />
    <glyph glyph-name="five.alt" 
d="M43 245h70v-108c0 -51 19 -82 67 -82s67 31 67 82v243c0 62 -20 79 -59 79c-43 0 -75 -40 -75 -88v-43h-70v372h275v-76h-205v-168c17 39 53 68 103 68c61 0 107 -32 107 -140v-237c0 -108 -51 -158 -140 -158c-90 0 -140 50 -140 158v98z" />
    <glyph glyph-name="six.alt" 
d="M324 333v-190c0 -107 -52 -154 -142 -154c-91 0 -143 47 -143 154v410c0 108 50 158 140 158s140 -50 140 -158v-21h-71v31c0 51 -19 82 -66 82c-48 0 -67 -31 -67 -82v-156c17 37 53 66 102 66c61 0 107 -32 107 -140zM189 407c-42 0 -74 -40 -74 -87v-186
c0 -52 19 -79 67 -79c47 0 66 27 66 79v195c0 61 -20 78 -59 78z" />
    <glyph glyph-name="seven.alt" 
d="M45 624v76h281v-62l-197 -638h-84l207 624h-207z" />
    <glyph glyph-name="eight.alt" 
d="M322 499c0 -66 -16 -113 -67 -134c51 -21 67 -68 67 -133v-92c0 -107 -51 -151 -142 -151s-143 44 -143 151v92c0 65 16 112 67 133c-51 21 -67 68 -67 134v61c0 107 52 151 143 151s142 -44 142 -151v-61zM180 333c-56 0 -67 -27 -67 -86v-113c0 -52 19 -79 67 -79
s67 27 67 79v113c0 58 -14 86 -67 86zM180 398c53 0 67 28 67 86v82c0 52 -19 79 -67 79s-67 -27 -67 -79v-82c0 -59 12 -86 67 -86z" />
    <glyph glyph-name="nine.alt" 
d="M178 55c48 0 67 31 67 82v168c-17 -39 -54 -68 -103 -68c-61 0 -107 32 -107 140v180c0 107 52 154 143 154s142 -47 142 -154v-410c0 -108 -50 -158 -140 -158c-89 0 -140 50 -140 158v31h71v-41c0 -51 19 -82 67 -82zM170 303c43 0 75 40 75 87v176c0 52 -19 79 -67 79
s-67 -27 -67 -79v-185c0 -61 20 -78 59 -78z" />
    </font>
</defs>
</svg>
